<svg xmlns="http://www.w3.org/2000/svg" width="487.5" height="72" viewBox="0 0 487.5 72"><font horiz-adv-x="1000"><font-face font-family="AkzidenzGroteskBE-Regular" underline-position="-100" underline-thickness="50"/><glyph unicode="A" horiz-adv-x="646" d="M535 0h99L377 706h-98L10 0h100l79 216h269m-239 79l108 294 103-294z"/><glyph unicode="Æ" horiz-adv-x="1042" d="M607 312h318v80H607v230h394v84H480L-3 0h111l153 233h252V0h501v82H607M316 313l197 301V313z"/><glyph unicode="Á" horiz-adv-x="646" d="M535 0h99L377 706h-98L10 0h100l79 216h269m-239 79l108 294 103-294M329 895l-48-124h60l87 124z"/><glyph unicode="Â" horiz-adv-x="646" d="M535 0h99L377 706h-98L10 0h100l79 216h269m-239 79l108 294 103-294M263 771l59 74 62-74h77L354 895h-65L189 771z"/><glyph unicode="Ä" horiz-adv-x="646" d="M535 0h99L377 706h-98L10 0h100l79 216h269m-239 79l108 294 103-294M185 883V781h87v102m109 0V781h87v102z"/><glyph unicode="À" horiz-adv-x="646" d="M535 0h99L377 706h-98L10 0h100l79 216h269m-239 79l108 294 103-294M219 895l86-124h60l-47 124z"/><glyph unicode="Å" horiz-adv-x="646" d="M535 0h99L377 706h-98L10 0h100l79 216h269m-239 79l108 294 103-294M327 944c-52 0-95-43-95-95 0-53 43-96 95-96 53 0 96 42 96 96 0 53-43 95-96 95m1-44c27 0 50-23 50-51s-23-51-50-51c-29 0-51 23-51 51s22 51 51 51z"/><glyph unicode="Ã" horiz-adv-x="646" d="M535 0h99L377 706h-98L10 0h100l79 216h269m-239 79l108 294 103-294m-8 588c-3-12-8-32-33-32-17 0-44 11-63 19-21 7-40 15-61 15-70 0-84-73-87-99h48c3 14 11 31 33 31 13 0 18-2 61-18 20-8 45-17 66-17 60 0 76 62 83 101z"/><glyph unicode="B" horiz-adv-x="688" d="M77 0h276c104 1 153 1 208 37 75 49 80 124 80 158 0 138-103 169-130 177 53 16 108 67 108 153 0 110-85 162-156 176-29 5-54 5-95 5H77m308-83c38 0 135-2 135-103 0-21-5-44-18-63-32-48-82-48-189-48H166v214m173-294c87-1 109-2 137-14 8-4 68-31 68-113 0-55-22-99-82-113-20-5-37-5-87-6H166v246z"/><glyph unicode="C" horiz-adv-x="750" d="M639 268C617 119 510 60 405 60c-163 0-252 123-252 298 0 72 14 146 59 202 46 59 119 89 194 89 89 0 151-40 185-82 26-30 33-53 42-79l95 20c-17 47-77 216-321 216-243 0-358-171-358-371C49 157 161-18 394-18c205 0 318 140 348 274z"/><glyph unicode="Ç" horiz-adv-x="750" d="M640 268C617 119 511 60 405 60c-163 0-252 123-252 298 0 72 14 146 59 202 46 59 119 89 195 89 88 0 150-40 184-82 26-30 33-53 42-79l95 20c-17 47-77 216-320 216-244 0-359-171-359-371 0-96 27-192 90-264C217 0 299-8 384-17l-51-79 28-11c26-10 32-25 32-38 0-3 0-39-52-36v-21c35 3 69 5 96 26 19 15 30 38 30 60 0 26-17 50-36 60l-26 13 16 28c63 6 121 12 193 68 65 50 110 122 128 203z"/><glyph unicode="D" horiz-adv-x="708" d="M78 0h243c60 0 156 0 238 75 97 91 99 229 99 278 0 50-3 175-88 266-82 87-171 87-271 87H78m207-83c50 0 91 0 130-12 113-35 147-143 147-259 0-152-60-216-107-242-47-27-94-28-156-29H174v542z"/><glyph unicode="E" horiz-adv-x="604" d="M513 322v83H169v218h396v83H78V0h499v82H169v240z"/><glyph unicode="É" horiz-adv-x="604" d="M513 322v83H169v218h396v83H78V0h499v82H169v240m149 573l-48-124h60l87 124z"/><glyph unicode="Ê" horiz-adv-x="604" d="M513 322v83H169v218h396v83H78V0h499v82H169v240m89 449l59 74 62-74h77L349 895h-65L184 771z"/><glyph unicode="Ë" horiz-adv-x="604" d="M513 322v83H169v218h396v83H78V0h499v82H169v240m8 561V781h87v102m109 0V781h87v102z"/><glyph unicode="È" horiz-adv-x="604" d="M513 322v83H169v218h396v83H78V0h499v82H169v240m39 573l86-124h60l-47 124z"/><glyph unicode="Ð" horiz-adv-x="708" d="M78 400H12v-59h66V0h243c60 0 156 0 238 75 97 91 99 229 99 278 0 50-3 175-88 266-82 87-171 87-271 87H78m207-83c50 0 91 0 130-12 113-35 147-143 147-259 0-104-29-211-125-252-41-17-91-18-138-19H174v260h169v59H174v223z"/><glyph unicode="€" horiz-adv-x="583" d="M538 635c-29 21-90 45-170 45-165 0-243-105-266-243H50l-24-64h70c-1-9-2-21-2-33s1-27 2-35H50l-24-65h77C129 74 224-5 368-5c85 0 145 24 170 44v85c-34-30-85-54-159-54-108 0-174 63-190 170h231l24 65H179c-1 8-1 22-1 35 0 12 0 24 1 33h291l25 64H189c14 95 73 168 189 168 76 0 129-26 160-54z"/><glyph unicode="F" horiz-adv-x="542" d="M506 332v82H172v209h359v84H78V0h94v332z"/><glyph unicode="G" horiz-adv-x="812" d="M413 373v-79h247c3-187-159-230-246-230-192 0-261 157-261 290 0 128 67 292 265 292 93 0 149-39 177-69 29-30 41-62 49-83l97 26c-11 23-33 69-80 114-67 61-156 90-246 90-257 0-365-200-365-380C50 135 184-18 402-18c96 0 199 31 258 117V0h81v373z"/><glyph unicode="H" horiz-adv-x="729" d="M557 0h95v707h-95V406H173v301H79V0h94v323h384z"/><glyph unicode="I" horiz-adv-x="229" d="M67 706V0h95v706z"/><glyph unicode="Í" horiz-adv-x="229" d="M67 706V0h95v706m-41 189L73 771h60l87 124z"/><glyph unicode="Î" horiz-adv-x="229" d="M67 706V0h95v706M55 771l59 74 62-74h77L146 895H81L-19 771z"/><glyph unicode="Ï" horiz-adv-x="229" d="M67 706V0h95v706M-26 883V781h87v102m109 0V781h87v102z"/><glyph unicode="Ì" horiz-adv-x="229" d="M67 706V0h95v706M11 895l86-124h60l-47 124z"/><glyph unicode="J" horiz-adv-x="375" d="M201 707V228c0-76 0-117-43-139-19-11-46-14-66-14-35 0-63 9-83 20V-7c16-3 46-10 95-10 39 0 103 4 152 58 41 45 41 93 41 147v519z"/><glyph unicode="K" horiz-adv-x="625" d="M510 0h114L326 414l286 292H496L161 361v345H67V0h94v246l100 101z"/><glyph unicode="L" horiz-adv-x="521" d="M162 707H68V0h436v84H162z"/><glyph unicode="Ł" horiz-adv-x="521" d="M162 323l153 140v78L162 400v307H68V313L5 253v-79l63 60V0h436v84H162z"/><glyph unicode="M" horiz-adv-x="812" d="M624 706L406 127 189 706H68V0h92l-10 583L369 0h73l223 592L652 0h93v706z"/><glyph unicode="N" horiz-adv-x="708" d="M545 706l4-566-383 566H78V0h88l-8 574L545 0h85v706z"/><glyph unicode="Ñ" horiz-adv-x="708" d="M545 706l4-566-383 566H78V0h88l-8 574L545 0h85v706M453 883c-3-12-8-32-33-32-17 0-44 11-63 19-21 7-40 15-61 15-70 0-84-73-87-99h48c3 14 11 31 33 31 13 0 18-2 61-18 20-8 45-17 66-17 60 0 76 62 83 101z"/><glyph unicode="O" horiz-adv-x="812" d="M762 360c0 230-157 364-355 364-175 0-356-109-356-371C51 133 189-18 404-18c234 0 358 166 358 378m-102-1c1-145-62-303-252-303-182 0-255 148-255 296 0 159 76 296 254 296 163 0 252-118 253-289z"/><glyph unicode="Œ" horiz-adv-x="1146" d="M708 320h322v82H708v219h400v85H618v-74c-70 76-152 92-222 92-219 0-346-161-346-369C50 150 176-18 386-18c129 0 200 66 232 99V0h501v82H708m-91 273c0-53-1-176-92-249-38-30-89-46-138-46-132 0-238 109-238 293 0 187 104 298 242 298 93 0 178-51 212-164 12-43 14-88 14-132z"/><glyph unicode="Ó" horiz-adv-x="812" d="M762 360c0 230-157 364-355 364-175 0-356-109-356-371C51 133 189-18 404-18c234 0 358 166 358 378m-102-1c1-145-62-303-252-303-182 0-255 148-255 296 0 159 76 296 254 296 163 0 252-118 253-289M412 895l-48-124h60l87 124z"/><glyph unicode="Ô" horiz-adv-x="812" d="M762 360c0 230-157 364-355 364-175 0-356-109-356-371C51 133 189-18 404-18c234 0 358 166 358 378m-102-1c1-145-62-303-252-303-182 0-255 148-255 296 0 159 76 296 254 296 163 0 252-118 253-289M346 771l59 74 62-74h77L437 895h-65L272 771z"/><glyph unicode="Ö" horiz-adv-x="812" d="M762 360c0 230-157 364-355 364-175 0-356-109-356-371C51 133 189-18 404-18c234 0 358 166 358 378m-102-1c1-145-62-303-252-303-182 0-255 148-255 296 0 159 76 296 254 296 163 0 252-118 253-289M269 883V781h87v102m109 0V781h87v102z"/><glyph unicode="Ò" horiz-adv-x="812" d="M762 360c0 230-157 364-355 364-175 0-356-109-356-371C51 133 189-18 404-18c234 0 358 166 358 378m-102-1c1-145-62-303-252-303-182 0-255 148-255 296 0 159 76 296 254 296 163 0 252-118 253-289M302 895l86-124h60l-47 124z"/><glyph unicode="Ø" horiz-adv-x="812" d="M647 634c-59 48-126 90-243 90-249 0-354-199-354-371 0-112 42-189 66-228L47 59 96 8l65 62c57-45 121-88 239-88 252 0 363 204 363 373 0 120-53 199-71 226l71 67-48 51M186 192c-11 26-32 76-32 157 0 170 85 300 248 300 94 0 146-43 179-78m40-59c34-71 38-142 38-172 0-144-82-284-253-284-98 0-147 41-182 75z"/><glyph unicode="Õ" horiz-adv-x="812" d="M762 360c0 230-157 364-355 364-175 0-356-109-356-371C51 133 189-18 404-18c234 0 358 166 358 378m-102-1c1-145-62-303-252-303-182 0-255 148-255 296 0 159 76 296 254 296 163 0 252-118 253-289M505 883c-3-12-8-32-33-32-17 0-44 11-63 19-21 7-40 15-61 15-70 0-84-73-87-99h48c3 14 11 31 33 31 13 0 18-2 61-18 20-8 45-17 66-17 60 0 76 62 83 101z"/><glyph unicode="P" horiz-adv-x="625" d="M371 299c43 0 78 0 113 11 94 29 130 119 130 196 0 82-38 159-121 188-37 12-77 12-112 12H76V0h91v299m0 326h218c33 0 68-1 99-27 33-28 37-66 37-90 0-35-10-70-34-94-32-32-69-32-123-32H167z"/><glyph unicode="Q" horiz-adv-x="812" d="M747-36l59 70-109 94c41 62 65 126 65 225 0 206-120 371-355 371-226 0-360-158-360-371C47 148 175-18 402-18c111 0 181 37 232 77m27 293c1-195-113-294-254-294-159 0-258 120-258 297 0 184 109 296 256 296 145 0 255-105 256-299z"/><glyph unicode="R" horiz-adv-x="667" d="M352 300L544 0h112L458 306c34 6 167 29 167 194 0 65-22 124-74 163-55 42-113 42-211 43H78V0h92v300m0 328h182c54 0 100 1 137-30 40-33 42-81 42-99 0-51-23-98-88-114-28-7-56-7-86-7H170z"/><glyph unicode="S" horiz-adv-x="667" d="M382 314c69-14 134-36 134-118 0-92-76-141-176-141-52 0-105 12-145 47-53 47-56 109-57 136L37 225C53-8 272-18 336-18c43 0 124 4 192 50 63 43 90 105 90 171 0 47-16 132-122 176-28 12-57 18-111 31l-78 20c-61 14-139 32-139 110 0 76 75 111 160 111 45 0 90-8 126-34 53-39 56-95 57-117l95 6c-7 43-21 115-91 166-64 47-140 52-190 52-49 0-126-6-189-60-27-23-65-67-65-137 0-146 150-180 252-201z"/><glyph unicode="Š" horiz-adv-x="667" d="M382 314c69-14 134-36 134-118 0-92-76-141-176-141-52 0-105 12-145 47-53 47-56 109-57 136L37 225C53-8 272-18 336-18c43 0 124 4 192 50 63 43 90 105 90 171 0 47-16 132-122 176-28 12-57 18-111 31l-78 20c-61 14-139 32-139 110 0 76 75 111 160 111 45 0 90-8 126-34 53-39 56-95 57-117l95 6c-7 43-21 115-91 166-64 47-140 52-190 52-49 0-126-6-189-60-27-23-65-67-65-137 0-146 150-180 252-201m70 569l-59-76-62 76h-76l105-124h66l100 124z"/><glyph unicode="T" horiz-adv-x="542" d="M528 624v83H10v-83h212V0h95v624z"/><glyph unicode="Þ" horiz-adv-x="625" d="M371 170c43 0 78 0 113 11 94 29 130 119 130 196 0 82-38 159-121 188-37 12-77 12-112 12H167v129H76V0h91v170m0 326h218c33 0 68-1 99-27 33-28 37-66 37-90 0-35-10-70-34-94-32-32-69-32-123-32H167z"/><glyph unicode="U" horiz-adv-x="688" d="M516 707V284c-1-45-1-74-9-105-21-77-86-117-169-117-28 0-90 3-132 55-37 45-37 100-36 165v425H75V269c0-79-1-132 46-192 67-86 165-94 217-94 165 0 244 96 264 181 8 32 8 63 9 92v451z"/><glyph unicode="Ú" horiz-adv-x="688" d="M516 707V284c-1-45-1-74-9-105-21-77-86-117-169-117-28 0-90 3-132 55-37 45-37 100-36 165v425H75V269c0-79-1-132 46-192 67-86 165-94 217-94 165 0 244 96 264 181 8 32 8 63 9 92v451M350 895l-48-124h60l87 124z"/><glyph unicode="Û" horiz-adv-x="688" d="M516 707V284c-1-45-1-74-9-105-21-77-86-117-169-117-28 0-90 3-132 55-37 45-37 100-36 165v425H75V269c0-79-1-132 46-192 67-86 165-94 217-94 165 0 244 96 264 181 8 32 8 63 9 92v451m-327 64l59 74 62-74h77L375 895h-65L210 771z"/><glyph unicode="Ü" horiz-adv-x="688" d="M516 707V284c-1-45-1-74-9-105-21-77-86-117-169-117-28 0-90 3-132 55-37 45-37 100-36 165v425H75V269c0-79-1-132 46-192 67-86 165-94 217-94 165 0 244 96 264 181 8 32 8 63 9 92v451M202 883V781h87v102m109 0V781h87v102z"/><glyph unicode="Ù" horiz-adv-x="688" d="M516 707V284c-1-45-1-74-9-105-21-77-86-117-169-117-28 0-90 3-132 55-37 45-37 100-36 165v425H75V269c0-79-1-132 46-192 67-86 165-94 217-94 165 0 244 96 264 181 8 32 8 63 9 92v451M240 895l86-124h60l-47 124z"/><glyph unicode="V" horiz-adv-x="604" d="M298 116L111 706H11L249 0h94l249 706H492z"/><glyph unicode="W" horiz-adv-x="1021" d="M741 121L555 706h-92L284 121 117 706H18L235 0h94l180 585L695 0h92l216 706h-97z"/><glyph unicode="X" horiz-adv-x="625" d="M579 706H468L311 452 146 706H34l222-336L21 0h109l181 287L494 0h111L364 370z"/><glyph unicode="Y" horiz-adv-x="625" d="M611 706H499L310 407 125 706H13l249-383V0h95v323z"/><glyph unicode="Ý" horiz-adv-x="625" d="M611 706H499L310 407 125 706H13l249-383V0h95v323m-39 572l-48-124h60l87 124z"/><glyph unicode="Ÿ" horiz-adv-x="625" d="M611 706H499L310 407 125 706H13l249-383V0h95v323M171 883V781h87v102m109 0V781h87v102z"/><glyph unicode="Z" horiz-adv-x="604" d="M53 706v-87h401L18 92V0h553v85H127l434 533v88z"/><glyph unicode="Ž" horiz-adv-x="604" d="M53 706v-87h401L18 92V0h553v85H127l434 533v88M362 895l-59-76-62 76h-76l105-124h66l100 124z"/><glyph unicode="a" horiz-adv-x="500" d="M271 276c-141-11-191-43-218-83-14-21-21-46-21-71 0-80 68-135 160-135 90 0 138 52 162 77 8-58 45-70 82-70 23 0 37 5 50 8v69c-7-3-16-5-26-5-33 0-33 23-34 68v153c1 63 1 117-51 159-37 29-94 40-138 40-80 0-135-32-163-84-15-28-17-54-19-71l84-5c0 25 0 99 101 99 106 0 106-82 106-131v-12m1-51c0-69-1-80-13-106-23-49-70-71-125-71-59 0-89 32-89 70 0 33 15 66 103 85 51 11 93 17 124 22z"/><glyph unicode="á" horiz-adv-x="500" d="M271 276c-141-11-191-43-218-83-14-21-21-46-21-71 0-80 68-135 160-135 90 0 138 52 162 77 8-58 45-70 82-70 23 0 37 5 50 8v69c-7-3-16-5-26-5-33 0-33 23-34 68v153c1 63 1 117-51 159-37 29-94 40-138 40-80 0-135-32-163-84-15-28-17-54-19-71l84-5c0 25 0 99 101 99 106 0 106-82 106-131v-12m1-51c0-69-1-80-13-106-23-49-70-71-125-71-59 0-89 32-89 70 0 33 15 66 103 85 51 11 93 17 124 22m-78 435l-41-144h41l86 144z"/><glyph unicode="â" horiz-adv-x="500" d="M271 276c-141-11-191-43-218-83-14-21-21-46-21-71 0-80 68-135 160-135 90 0 138 52 162 77 8-58 45-70 82-70 23 0 37 5 50 8v69c-7-3-16-5-26-5-33 0-33 23-34 68v153c1 63 1 117-51 159-37 29-94 40-138 40-80 0-135-32-163-84-15-28-17-54-19-71l84-5c0 25 0 99 101 99 106 0 106-82 106-131v-12m1-51c0-69-1-80-13-106-23-49-70-71-125-71-59 0-89 32-89 70 0 33 15 66 103 85 51 11 93 17 124 22M192 523l59 95 61-95h75L283 674h-67l-94-151z"/><glyph unicode="´" horiz-adv-x="271" d="M113 666L72 522h41l86 144z"/><glyph unicode="ä" horiz-adv-x="500" d="M271 276c-141-11-191-43-218-83-14-21-21-46-21-71 0-80 68-135 160-135 90 0 138 52 162 77 8-58 45-70 82-70 23 0 37 5 50 8v69c-7-3-16-5-26-5-33 0-33 23-34 68v153c1 63 1 117-51 159-37 29-94 40-138 40-80 0-135-32-163-84-15-28-17-54-19-71l84-5c0 25 0 99 101 99 106 0 106-82 106-131v-12m1-51c0-69-1-80-13-106-23-49-70-71-125-71-59 0-89 32-89 70 0 33 15 66 103 85 51 11 93 17 124 22M105 644V541h87v103m110 0V541h88v103z"/><glyph unicode="æ" horiz-adv-x="812" d="M688 150C672 84 628 50 573 50c-51 0-100 25-123 86-10 26-13 54-13 78h343c-1 41-3 120-54 188-26 36-76 84-165 84-96 0-139-54-162-83-6 9-18 29-41 47-43 33-94 36-118 36-80 0-170-35-184-150l85-6c3 54 39 95 100 95 73 0 103-58 111-95 6-23 6-43 6-58-144 0-195 0-249-31-51-29-77-76-77-123C32 44 91-14 194-14c81 0 144 37 192 99 12-21 39-65 98-87 16-5 41-12 78-12 134 0 193 92 209 151M436 272c3 93 63 148 126 148 54 0 126-43 133-148m-338-58c-2-110-70-165-147-165-69 0-94 43-94 73 0 51 54 76 106 86 35 6 64 6 89 6z"/><glyph unicode="à" horiz-adv-x="500" d="M271 276c-141-11-191-43-218-83-14-21-21-46-21-71 0-80 68-135 160-135 90 0 138 52 162 77 8-58 45-70 82-70 23 0 37 5 50 8v69c-7-3-16-5-26-5-33 0-33 23-34 68v153c1 63 1 117-51 159-37 29-94 40-138 40-80 0-135-32-163-84-15-28-17-54-19-71l84-5c0 25 0 99 101 99 106 0 106-82 106-131v-12m1-51c0-69-1-80-13-106-23-49-70-71-125-71-59 0-89 32-89 70 0 33 15 66 103 85 51 11 93 17 124 22M151 665l82-144h47l-41 144z"/><glyph unicode="&amp;" horiz-adv-x="604" d="M467 325c-4-20-17-74-47-131-37 58-70 118-101 179 57 31 154 85 154 187 0 83-65 140-146 140-92 0-158-70-158-164 0-41 6-57 33-130-8-7-51-31-59-37-40-25-77-69-93-115-8-22-11-46-11-70C39 61 136-9 232-9c68 0 124 29 177 73 35-41 78-72 147-72 17 0 27 2 37 4v83c-8-1-17-3-29-3-53 0-83 36-97 52 54 83 71 159 76 197M283 443c-14 28-33 75-33 110 0 58 40 87 77 87 35 0 66-26 66-70 0-60-53-102-110-127m-47-106c25-55 105-186 126-217-23-20-60-52-116-52-83 0-123 74-123 126 0 67 51 114 113 143z"/><glyph unicode="å" horiz-adv-x="500" d="M271 276c-141-11-191-43-218-83-14-21-21-46-21-71 0-80 68-135 160-135 90 0 138 52 162 77 8-58 45-70 82-70 23 0 37 5 50 8v69c-7-3-16-5-26-5-33 0-33 23-34 68v153c1 63 1 117-51 159-37 29-94 40-138 40-80 0-135-32-163-84-15-28-17-54-19-71l84-5c0 25 0 99 101 99 106 0 106-82 106-131v-12m1-51c0-69-1-80-13-106-23-49-70-71-125-71-59 0-89 32-89 70 0 33 15 66 103 85 51 11 93 17 124 22M152 608c0-52 42-94 94-94s94 42 94 94-42 94-94 94-94-42-94-94m43 1c0 28 23 51 51 51s51-23 51-51-23-51-51-51-51 23-51 51z"/><glyph unicode="^" horiz-adv-x="667" d="M376 706h-77L111 337h96l128 259 124-259h97z"/><glyph unicode="~" horiz-adv-x="667" d="M536 366c-19-25-55-62-96-62-21 0-40 8-70 21l-33 15c-36 17-71 33-111 33-75 0-117-60-133-84l40-71c42 50 56 67 95 67 31 0 62-15 108-38 44-20 68-32 101-32 64 0 113 49 137 80z"/><glyph unicode="*" horiz-adv-x="375" d="M158 706V588L44 624l-18-59 117-36-71-100 51-32 67 95 71-95 49 39-75 93 114 36-17 59-114-36v118z"/><glyph unicode="@" horiz-adv-x="896" d="M787 76C681-25 565-69 451-69 308-69 125 8 125 235c0 228 185 422 397 422 159 0 247-96 247-236 0-158-96-292-152-292-11 0-30 9-30 43 0 33 6 64 28 173l33 150h-68l-15-62c-11 25-36 84-115 84-112 0-211-135-211-286 0-115 68-160 130-160 69 0 116 46 144 84 2-22 4-59 44-77 12-5 27-8 40-8 51 0 118 38 168 123 48 81 62 176 62 229 0 174-115 290-296 290-276 0-462-237-462-476 0-269 221-360 385-360 131 0 256 53 365 160M541 347c-3-113-69-212-145-212-20 0-78 11-78 102 0 94 54 216 140 216 38 0 84-30 83-106z"/><glyph unicode="ã" horiz-adv-x="500" d="M271 276c-141-11-191-43-218-83-14-21-21-46-21-71 0-80 68-135 160-135 90 0 138 52 162 77 8-58 45-70 82-70 23 0 37 5 50 8v69c-7-3-16-5-26-5-33 0-33 23-34 68v153c1 63 1 117-51 159-37 29-94 40-138 40-80 0-135-32-163-84-15-28-17-54-19-71l84-5c0 25 0 99 101 99 106 0 106-82 106-131v-12m1-51c0-69-1-80-13-106-23-49-70-71-125-71-59 0-89 32-89 70 0 33 15 66 103 85 51 11 93 17 124 22m2 404c-2-11-7-31-31-31-7 0-16 0-53 14-24 9-52 20-73 20-67 0-83-71-87-99h49c3 11 8 31 33 31 12 0 17-2 62-19 39-14 54-16 66-16 61 0 78 72 82 100z"/><glyph unicode="b" horiz-adv-x="562" d="M65 707V0h80v61c20-27 66-75 161-75 161 0 218 130 218 249 0 182-115 251-217 251-103 0-147-60-162-79v300m-2-472c1 139 85 178 150 178 79 0 146-58 146-174 0-89-39-186-147-186-75 0-149 51-149 182z"/><glyph unicode="\" horiz-adv-x="333" d="M90 702H13L246 0h75z"/><glyph unicode="|" horiz-adv-x="229" d="M154 750H74V-250h80z"/><glyph unicode="{" horiz-adv-x="354" d="M68 300c22-9 45-18 61-56 10-25 11-51 11-117V69c-1-48-2-113 38-154 33-34 78-39 147-41v40c-93 26-98 69-99 166v22c0 28 0 56-1 84-3 89-33 113-87 133 49 16 83 37 86 137 1 31 1 61 1 91v10c1 63 3 92 17 116 21 37 57 45 83 52v40c-81-4-113-6-149-45-33-36-36-80-37-164v-55c0-60-1-88-12-113-16-36-35-41-59-48z"/><glyph unicode="}" horiz-adv-x="354" d="M286 339c-22 9-45 18-61 56-10 25-11 51-11 117v58c1 48 2 113-38 154-33 34-78 39-147 41v-40c93-26 98-69 99-166v-22c0-28 0-56 1-84 3-89 33-113 87-133-49-16-83-37-86-137-1-31-1-61-1-91V82c-1-63-3-92-17-116-21-37-57-45-83-52v-40c81 4 113 6 149 45 33 36 36 80 37 164v55c0 60 1 88 12 113 16 36 35 41 59 48z"/><glyph unicode="[" horiz-adv-x="313" d="M302 683v62H114v-856h188v60H198v734z"/><glyph unicode="]" horiz-adv-x="313" d="M11-49v-62h188v856H11v-60h104V-49z"/><glyph unicode="˘" horiz-adv-x="271" d="M210 655c0-27-32-64-73-64-7 0-59 2-78 63H9c4-89 69-129 126-129 69 0 123 59 127 130z"/><glyph unicode="¦" horiz-adv-x="229" d="M74-175h80v350H74m80 150v350H74V325z"/><glyph unicode="•" horiz-adv-x="333" d="M37 353c0-72 58-130 130-130s130 58 130 130-58 130-130 130S37 425 37 353z"/><glyph unicode="c" horiz-adv-x="521" d="M408 178c-5-37-18-131-133-131-49 0-90 20-117 63-21 32-31 76-31 127 0 42 6 191 143 191 107 0 124-89 127-108l88 8c-31 131-142 158-218 158-157 0-228-121-228-255 0-116 62-245 235-245 87 0 154 32 193 104 19 35 24 61 27 80z"/><glyph unicode="ˇ" horiz-adv-x="271" d="M197 673l-59-96-61 96H3l102-151h67l96 151z"/><glyph unicode="ç" horiz-adv-x="521" d="M407 178c-5-34-18-131-132-131-96 0-148 75-148 190 0 42 6 191 143 191 106 0 123-89 126-108l89 8c-14 76-75 123-118 141-17 7-48 17-99 17-160 0-229-123-229-252 0-36 4-113 62-178C153-3 206-8 256-13l-53-83 29-11c25-10 31-25 31-38 0-2 0-39-52-36v-21c35 3 69 5 96 26 19 15 30 38 30 60 0 26-17 50-36 60l-26 13 17 31C332-9 416-1 467 90c18 34 23 63 26 80z"/><glyph unicode="¸" horiz-adv-x="271" d="M140 16L68-97l29-10c25-10 31-25 31-38 0-3 0-39-52-36v-22c35 3 69 5 96 26 19 15 30 38 30 60 0 26-17 50-36 60l-26 13 30 52z"/><glyph unicode="¢" horiz-adv-x="500" d="M231 481c-25-4-70-12-114-45-44-34-89-99-89-198 0-83 33-155 81-197 45-40 92-48 122-53v-103h59v103c38 4 111 12 160 95 21 35 28 68 33 89l-87 8c-2-23-6-68-43-100-22-19-45-24-62-27v364c26-7 84-22 93-102l89 9c-8 27-29 90-92 129-36 22-71 26-90 28v97h-60m0-524c-32 8-118 31-118 184 0 88 34 158 118 180z"/><glyph unicode="ˆ" horiz-adv-x="271" d="M73 523l59 95 61-95h75L164 674H97L3 523z"/><glyph unicode=":" horiz-adv-x="271" d="M106 489V377h98v112m-98-376V0h98v113z"/><glyph unicode="," horiz-adv-x="229" d="M63 109V0h43c-4-79-24-135-32-156h46c31 81 40 120 42 214v51z"/><glyph unicode="©" horiz-adv-x="833" d="M773 352c0 202-155 357-355 357-198 0-357-155-357-356C61 142 232-3 416-3c133 0 243 70 300 159 34 55 57 125 57 196m-32 0C739 160 589 29 419 29 233 29 93 177 93 352c0 183 146 325 326 325 189 0 324-151 322-325m-183-94c-22-24-59-65-134-65-81 0-158 62-158 161 0 98 72 163 159 163 71 0 110-43 133-67l56 52c-24 27-79 90-191 90-138 0-235-106-235-238 0-137 100-236 235-236 111 0 167 63 191 91z"/><glyph unicode="¤" horiz-adv-x="667" d="M624 570l-60 60-75-75c-43 28-79 51-154 51-83 0-128-31-157-51l-75 75-60-60 75-75c-17-25-51-72-51-154 0-79 24-116 51-158l-76-75 60-60 76 76c41-27 78-51 156-51 74 0 110 23 154 50l75-76 61 59-76 77c28 43 51 78 51 159 0 74-23 110-50 153m-30-155c-1-115-87-189-186-189-96 0-186 74-186 190 0 108 84 187 188 187 92 0 185-71 184-188z"/><glyph unicode="d" horiz-adv-x="562" d="M417 707V409c-54 70-132 77-163 77-95 0-215-64-215-248C39 88 119-14 255-14c99 0 143 52 162 75V0h80v707M274 414c64-1 145-43 145-176 0-113-57-181-148-181-102 0-147 81-147 178 0 143 89 180 150 179z"/><glyph unicode="†" horiz-adv-x="458" d="M191 706V500H20v-80h171V0h80v420h170v80H271v206z"/><glyph unicode="‡" horiz-adv-x="458" d="M191 706V500H20v-80h171V261H19v-80h172V0h80v181h170v80H271v159h170v80H271v206z"/><glyph unicode="°" horiz-adv-x="354" d="M16 595c0-89 72-161 161-161s161 72 161 161-72 161-161 161S16 684 16 595m82 0c0 44 35 79 79 79s79-35 79-79-35-79-79-79-79 35-79 79z"/><glyph unicode="¨" horiz-adv-x="271" d="M-7 644V541h87v103m110 0V541h88v103z"/><glyph unicode="÷" horiz-adv-x="667" d="M391 145c1 28-21 57-56 57-30 0-57-23-57-57 0-31 25-55 56-55 32 0 56 23 57 55m0 290c0 28-20 56-56 56s-57-29-57-56c0-36 29-56 55-56 37 0 58 29 58 56m276-105H0v-79h667z"/><glyph unicode="$" horiz-adv-x="625" d="M288 826V715c-36-4-103-12-157-57-44-37-67-88-67-137 0-58 30-107 77-142 43-33 96-49 147-65V61c-27 5-86 16-132 78-26 35-31 63-34 77L21 204C35 140 69 81 122 43c43-32 108-54 166-60v-119h67v119c109-4 245 69 245 203 0 137-145 190-245 217v236c21-3 67-11 106-65 5-6 19-26 29-56l93 9c-6 25-21 80-85 130-43 33-83 45-143 58v111m-67-404c-60 19-123 41-123 111 0 34 19 72 62 93 23 12 42 14 61 16m67-347c95-30 142-62 142-122 0-44-28-91-91-107-14-4-30-6-51-8z"/><glyph unicode="˙" horiz-adv-x="271" d="M92 541h87v99H92z"/><glyph unicode="ı" horiz-adv-x="208" d="M67 471V0h77v471z"/><glyph unicode="e" horiz-adv-x="521" d="M402 156C388 93 348 46 277 46c-112 0-154 98-152 177h358c0 20 0 56-9 96-28 119-120 167-207 167-100 0-228-68-228-246C39 81 130-14 270-14c160 0 202 127 213 159M127 280c9 95 66 145 134 145 39 0 128-21 135-145z"/><glyph unicode="é" horiz-adv-x="521" d="M402 156C388 93 348 46 277 46c-112 0-154 98-152 177h358c0 20 0 56-9 96-28 119-120 167-207 167-100 0-228-68-228-246C39 81 130-14 270-14c160 0 202 127 213 159M127 280c9 95 66 145 134 145 39 0 128-21 135-145M279 666l-41-144h41l86 144z"/><glyph unicode="ê" horiz-adv-x="521" d="M402 156C388 93 348 46 277 46c-112 0-154 98-152 177h358c0 20 0 56-9 96-28 119-120 167-207 167-100 0-228-68-228-246C39 81 130-14 270-14c160 0 202 127 213 159M127 280c9 95 66 145 134 145 39 0 128-21 135-145M201 523l59 95 61-95h75L292 674h-67l-94-151z"/><glyph unicode="ë" horiz-adv-x="521" d="M402 156C388 93 348 46 277 46c-112 0-154 98-152 177h358c0 20 0 56-9 96-28 119-120 167-207 167-100 0-228-68-228-246C39 81 130-14 270-14c160 0 202 127 213 159M127 280c9 95 66 145 134 145 39 0 128-21 135-145M130 644V541h87v103m110 0V541h88v103z"/><glyph unicode="è" horiz-adv-x="521" d="M402 156C388 93 348 46 277 46c-112 0-154 98-152 177h358c0 20 0 56-9 96-28 119-120 167-207 167-100 0-228-68-228-246C39 81 130-14 270-14c160 0 202 127 213 159M127 280c9 95 66 145 134 145 39 0 128-21 135-145M165 665l82-144h47l-41 144z"/><glyph unicode="8" horiz-adv-x="583" d="M437 362c19 11 77 46 77 140 0 61-27 138-125 167-28 8-59 11-95 11-32 0-111-2-165-45-40-32-60-82-60-134 0-79 40-116 75-139-26-17-51-33-71-73-14-27-21-56-21-89C52 97 127-6 292-6c164 0 241 99 241 209 0 103-66 141-96 159m-13 140c0-37-16-64-35-79-17-14-47-26-97-26-24 0-68 1-99 27-19 16-35 44-35 80 0 57 42 99 131 99 48 0 134-12 135-101m16-299c1-77-57-127-146-127-87 0-151 45-151 125 0 62 40 121 146 121 93 0 150-42 151-119z"/><glyph unicode="…" horiz-adv-x="1000" d="M784 113V0h99v113m-432 0V0h99v113m-432 0V0h99v113z"/><glyph unicode="—" horiz-adv-x="625" d="M582 334H45v-79h537z"/><glyph unicode="–" horiz-adv-x="583" d="M541 334H45v-79h496z"/><glyph unicode="=" horiz-adv-x="667" d="M667 240H0v-78h667m0 259H0v-79h667z"/><glyph unicode="ð" horiz-adv-x="542" d="M480 617l-18 47-86-28c-46 56-50 61-75 82l-62-29c18-17 42-40 72-75l-166-55 19-44 177 57c10-16 31-47 43-82 1-5 19-57 19-59 0-3-2-2-17 13-7 7-47 42-117 42-123 0-229-85-229-251 0-75 26-249 231-249 149 0 232 105 232 272 0 135-37 239-97 335m10-357c-1-48-11-186-144-186-103 0-144 82-144 181 0 106 41 191 150 191 51 0 114-24 133-120 3-14 6-36 5-66z"/><glyph unicode="!" horiz-adv-x="271" d="M139 147h31l24 271v288h-79V429m0-429h79v90h-79z"/><glyph unicode="¡" horiz-adv-x="271" d="M156 277l-24 282h-31L77 288V0h79m0 706H77v-90h79z"/><glyph unicode="f" horiz-adv-x="271" d="M167 553c0 37 1 84 60 84 11 0 29-2 44-4v62c-15 2-35 6-58 6-119 0-121-94-122-134l-1-96H11v-66h79V0h77v405h89v66h-89z"/><glyph unicode="ﬁ" horiz-adv-x="479" d="M167 553c0 38 1 85 61 85 10 0 29-2 43-4v62c-14 2-35 6-58 6-119 0-121-95-122-134l-1-97H11v-66h79V0h77v405h90v66h-90m173 236v-92h77v92m-77-236V0h77v471z"/><glyph unicode="5" horiz-adv-x="583" d="M72 307h81c10 25 46 87 133 87 92 0 147-62 147-155 0-101-57-168-150-168-103 0-139 80-147 145l-89-6C62 61 167-6 287-6c174 0 238 137 238 241 0 115-72 237-222 237-86 0-131-38-150-55l8 178h317v79H94z"/><glyph unicode="ﬂ" horiz-adv-x="479" d="M166 553c0 38 1 85 61 85 10 0 29-2 43-4v62c-14 2-35 6-58 6-119 0-122-95-122-134l-1-97H10v-66h79V0h77v405h90v66h-90m171 235V0h77v706z"/><glyph unicode="ƒ" horiz-adv-x="437" d="M334 575c14 55 20 74 53 74 4 0 19 0 36-5l14 60c-22 7-37 10-56 10-82 0-96-46-115-111l-34-132h-72l-15-62h72L102-82c-11-47-21-69-30-75-9-7-21-9-30-9-14 0-24 4-31 7l-15-58c19-7 33-12 60-12 82 0 102 67 114 115l125 523h84l15 62h-85z"/><glyph unicode="4" horiz-adv-x="583" d="M435 238v436h-70L42 242v-80h305V0h88v162h98v76m-400 0l218 301-4-301z"/><glyph unicode="⁄" horiz-adv-x="125" d="M246 717L-155 9l33-19 402 708z"/><glyph unicode="g" horiz-adv-x="562" d="M414 471v-63c-54 64-110 78-154 78-96 0-219-63-219-253C41 69 145-14 259-14c91 0 138 59 155 83V14c-1-78-1-113-30-144-16-16-46-34-100-34-99 0-132 57-131 111H63c4-28 12-93 72-136 39-28 94-40 144-40 75 0 152 26 189 91 30 50 29 109 29 164v445m-230-57c32 0 151-11 151-171 0-28-3-84-31-126-27-41-66-60-115-60-38 0-83 12-116 56-31 42-33 96-33 123 0 109 58 177 144 178z"/><glyph unicode="ß" horiz-adv-x="542" d="M192 5c15-5 49-16 95-16 82 0 138 35 168 71 46 56 48 136 48 172 0 143-84 185-143 193 43 17 90 56 90 138 0 95-68 161-190 161-89 0-166-33-188-126-7-30-8-59-8-102V0h79v492c1 70 2 95 25 122 13 16 42 37 94 37 60 0 108-32 108-91 0-32-17-100-130-100-13 0-19 0-40 2v-79c51 0 115-1 157-28 65-41 65-113 65-132 0-82-33-156-132-156-41 0-74 12-98 21z"/><glyph unicode="`" horiz-adv-x="271" d="M71 665l82-144h47l-41 144z"/><glyph unicode="&gt;" horiz-adv-x="667" d="M667 310v86L0 709v-87l567-269L0 83V-3z"/><glyph unicode="«" horiz-adv-x="396" d="M334 227l-78 68 78 67v90L199 335v-85l135-113m-157 90l-78 68 78 67v90L42 335v-85l135-113z"/><glyph unicode="»" horiz-adv-x="396" d="M62 362l78-68-78-67v-90l135 117v85L62 452m157-90l78-68-78-67v-90l135 117v85L219 452z"/><glyph unicode="‹" horiz-adv-x="250" d="M182 227l-78 68 78 67v90L47 335v-85l135-113z"/><glyph unicode="›" horiz-adv-x="250" d="M68 362l78-68-78-67v-90l135 117v85L68 452z"/><glyph unicode="h" horiz-adv-x="521" d="M66 0h81v229c0 35 0 60 6 86 16 73 71 101 122 101 31 0 63-11 83-40 19-29 19-65 19-127V0h81v274c0 47 0 78-9 108-14 46-55 104-159 104-45 0-93-9-143-62v283H66z"/><glyph unicode="˝" horiz-adv-x="271" d="M-1 521h46l88 144H45m95-144h45l87 144h-89z"/><glyph unicode="-" horiz-adv-x="292" d="M45 333v-76h202v76z"/><glyph unicode="i" horiz-adv-x="208" d="M69 706v-92h77v92M69 471V0h77v471z"/><glyph unicode="í" horiz-adv-x="208" d="M67 471V0h77v471m-27 195L76 522h41l86 144z"/><glyph unicode="î" horiz-adv-x="208" d="M67 471V0h77v471m-99 52l59 95 61-95h75L136 674H69l-94-151z"/><glyph unicode="ï" horiz-adv-x="208" d="M67 471V0h77v471M-37 644V541h87v103m110 0V541h88v103z"/><glyph unicode="ì" horiz-adv-x="208" d="M67 471V0h77v471M9 665l82-144h47L97 665z"/><glyph unicode="j" horiz-adv-x="208" d="M65 706v-93h78v93M65 470V-83c0-42 0-74-52-74-12 0-22 1-36 3v-72c11-1 28-3 53-3 29 0 61 2 87 29 25 26 25 57 26 96v574z"/><glyph unicode="k" horiz-adv-x="458" d="M432 471h-98L146 271v435H65V0h81v166l57 60L372 0h100L257 285z"/><glyph unicode="l" horiz-adv-x="208" d="M66 706V0h77v706z"/><glyph unicode="&lt;" horiz-adv-x="667" d="M667 83L100 353l567 269v87L0 396v-86L667-3z"/><glyph unicode="¬" horiz-adv-x="667" d="M587 0h80v332H0v-80h587z"/><glyph unicode="ł" horiz-adv-x="208" d="M66 706V395l-55-50v-67l55 48V0h77v397l54 50v70l-54-49v238z"/><glyph unicode="m" horiz-adv-x="771" d="M61 471V0h78v280c0 42 0 68 31 96 25 22 58 35 88 35 35 0 58-17 69-32 18-24 18-57 18-75V1h78v264c0 57 2 79 28 106 23 24 59 40 92 40 17 0 67-5 82-59 4-16 4-32 4-75V1h78v295c0 47-1 79-13 108-19 46-71 82-129 82-70 0-116-46-157-87-22 37-51 87-128 87-35 0-84-11-141-78v63z"/><glyph unicode="¯" horiz-adv-x="271" d="M-6 541h284v68H-6z"/><glyph unicode="−" horiz-adv-x="667" d="M667 332H0v-79h667z"/><glyph unicode="µ" horiz-adv-x="521" d="M65-224h79V44c22-23 52-56 106-56 48 0 89 18 125 84V0h79v470h-79V214c0-35 0-71-27-107-33-43-73-44-90-44-108 0-112 97-114 142v265H65z"/><glyph unicode="×" horiz-adv-x="667" d="M590 92L390 292l200 201-56 56-200-201-202 201-55-56 201-201L77 92l55-56 202 200L534 36z"/><glyph unicode="n" horiz-adv-x="521" d="M65 471V0h80v269c0 35 0 71 35 106 25 25 55 36 90 36 43 0 87-20 101-65 5-16 5-30 5-78V0h79v281c0 40 0 69-8 97-23 78-95 108-155 108-28 0-103-7-147-84v69z"/><glyph unicode="9" horiz-adv-x="583" d="M73 163c9-32 26-90 81-131C197 0 239-6 275-6c83 0 137 26 181 84 63 86 69 201 69 266 0 176-58 333-246 333-153 0-227-114-227-234 0-141 100-225 220-225 37 0 107 7 168 86 0-37-12-234-160-234-91 0-110 72-120 109m271 253c-3-88-73-134-150-134-73 0-140 46-140 142 0 83 42 162 139 162 106 0 153-92 151-170z"/><glyph unicode="ñ" horiz-adv-x="521" d="M65 471V0h80v269c0 35 0 71 35 106 25 25 55 36 90 36 43 0 87-20 101-65 5-16 5-30 5-78V0h79v281c0 40 0 69-8 97-23 78-95 108-155 108-28 0-103-7-147-84v69m213 164c-2-11-7-31-31-31-7 0-16 0-53 14-24 9-52 20-73 20-67 0-83-71-87-99h49c3 11 8 31 33 31 12 0 17-2 62-19 39-14 54-16 66-16 61 0 78 72 82 100z"/><glyph unicode="#" horiz-adv-x="667" d="M450 229h150v77H461l16 108h148v77H487l30 214h-78l-32-214H297l31 214h-80l-31-214H65v-77h142l-16-108H42v-77h139L146 0h81l33 229h111L338 0h79M270 306l16 108h111l-15-108z"/><glyph unicode="o" horiz-adv-x="542" d="M502 236c1 129-71 250-227 250C92 486 40 337 40 232c0-124 69-246 232-246 144 0 229 107 230 250m-87 0c-1-48-11-186-144-186-103 0-144 82-144 181 0 108 43 191 150 191 54 0 115-27 133-120 3-14 6-36 5-66z"/><glyph unicode="ó" horiz-adv-x="542" d="M502 236c1 129-71 250-227 250C92 486 40 337 40 232c0-124 69-246 232-246 144 0 229 107 230 250m-87 0c-1-48-11-186-144-186-103 0-144 82-144 181 0 108 43 191 150 191 54 0 115-27 133-120 3-14 6-36 5-66M285 666l-41-144h41l86 144z"/><glyph unicode="ô" horiz-adv-x="542" d="M502 236c1 129-71 250-227 250C92 486 40 337 40 232c0-124 69-246 232-246 144 0 229 107 230 250m-87 0c-1-48-11-186-144-186-103 0-144 82-144 181 0 108 43 191 150 191 54 0 115-27 133-120 3-14 6-36 5-66M213 523l59 95 61-95h75L304 674h-67l-94-151z"/><glyph unicode="ö" horiz-adv-x="542" d="M502 236c1 129-71 250-227 250C92 486 40 337 40 232c0-124 69-246 232-246 144 0 229 107 230 250m-87 0c-1-48-11-186-144-186-103 0-144 82-144 181 0 108 43 191 150 191 54 0 115-27 133-120 3-14 6-36 5-66M144 644V541h87v103m110 0V541h88v103z"/><glyph unicode="œ" horiz-adv-x="875" d="M751 152c-8-27-36-102-122-102-87 0-146 70-146 164h356c-2 66-15 133-53 187-56 78-133 85-172 85-62 0-125-21-172-87-21 28-69 87-170 87-117 0-230-78-230-251C42 69 148-14 268-14c110 0 159 71 174 94 33-53 96-94 180-94 134 0 191 99 210 155M484 274c8 98 69 148 133 148 66 0 123-52 134-148m-348-41c0-124-64-180-138-180-78 0-138 64-138 180 0 111 54 187 139 187 79 0 138-66 137-187z"/><glyph unicode="˛" horiz-adv-x="271" d="M131 6C82-42 57-66 57-111c0-71 75-76 142-76h15v75c-29-1-73-1-73 38 0 32 35 58 63 79z"/><glyph unicode="ò" horiz-adv-x="542" d="M502 236c1 129-71 250-227 250C92 486 40 337 40 232c0-124 69-246 232-246 144 0 229 107 230 250m-87 0c-1-48-11-186-144-186-103 0-144 82-144 181 0 108 43 191 150 191 54 0 115-27 133-120 3-14 6-36 5-66M177 665l82-144h47l-41 144z"/><glyph unicode="1" horiz-adv-x="583" d="M290 674c-18-99-77-118-172-119v-62h145V0h94v674z"/><glyph unicode="½" horiz-adv-x="875" d="M80 560h86V232h67v452h-49c-12-66-50-74-104-79m463 77L224-3l55-25 318 684m19-402c-4 14-8 29-8 52 0 50 25 87 80 87 58 0 83-41 83-80 0-91-128-196-227-252V0h297v56H633c27 18 100 66 149 125 28 34 54 76 54 130 0 78-54 139-144 139-85 0-148-52-148-144 0-21 3-37 6-52z"/><glyph unicode="¼" horiz-adv-x="875" d="M80 560h86V232h67v452h-49c-12-66-50-74-104-79m486 77L247-3l56-25 317 684m-98-490v-57h203V0h63v109h65v55h-64v287h-53M589 165l139 191-2-191z"/><glyph unicode="¹" horiz-adv-x="375" d="M80 560h86V233h67v451h-49c-12-66-50-74-104-79z"/><glyph unicode="ª" horiz-adv-x="313" d="M262 619c-2 26-3 53-33 76-27 21-60 22-74 22-100 0-109-69-112-96l55-3c-1 21 0 59 58 59 57 0 57-45 56-81-84-5-182-12-182-98 0-45 34-79 91-79 54 0 75 22 94 41 6-14 17-37 54-37 14 0 24 4 30 6v46c-3-2-6-5-15-5-20 0-21 16-22 35m-50 55c1-22 2-49-13-69-14-19-39-30-63-30-15 0-48 6-48 40 0 24 6 43 124 59z"/><glyph unicode="º" horiz-adv-x="333" d="M27 561c1-89 60-144 140-144 97 0 140 75 140 148 0 80-50 151-139 151-81 0-142-56-141-155m56 4c0 38 12 106 82 106 55 0 85-44 85-104s-25-106-82-106c-66 0-85 57-85 104z"/><glyph unicode="ø" horiz-adv-x="542" d="M427 425c-15 13-68 61-155 61-121 0-231-95-231-255 0-69 22-111 40-144L38 46l35-36 40 40c42-45 95-64 157-64 151 0 233 117 233 250 0 53-12 107-43 151l46 45-35 37M142 148c-5 13-17 43-17 95 0 114 68 179 144 179 58 0 90-36 104-50m28-43c6-13 20-42 20-99 0-109-63-180-145-180-66 0-98 42-108 54z"/><glyph unicode="õ" horiz-adv-x="542" d="M502 236c1 129-71 250-227 250C92 486 40 337 40 232c0-124 69-246 232-246 144 0 229 107 230 250m-87 0c-1-48-11-186-144-186-103 0-144 82-144 181 0 108 43 191 150 191 54 0 115-27 133-120 3-14 6-36 5-66m-45 399c-2-11-7-31-31-31-7 0-16 0-53 14-24 9-52 20-73 20-67 0-83-71-87-99h49c3 11 8 31 33 31 12 0 17-2 62-19 39-14 54-16 66-16 61 0 78 72 82 100z"/><glyph unicode="p" horiz-adv-x="562" d="M64-223h79V56c40-49 96-70 159-70 149 0 221 115 221 249 0 170-110 251-212 251-46 0-94-18-124-39-19-13-28-25-44-43v67H64m224-60c91 4 153-63 153-175 0-95-42-142-68-159-25-16-55-21-83-21-96 0-147 70-147 172 0 107 54 180 145 183z"/><glyph unicode="¶" horiz-adv-x="667" d="M309 706c-50-1-138-4-192-90-24-39-30-82-30-110 0-50 16-100 51-135 38-40 82-48 107-52v-485h57v818h145v-818h58v818h34v54z"/><glyph unicode="(" horiz-adv-x="313" d="M235 765c-8-14-45-75-51-87-55-101-97-242-97-360 0-200 106-386 148-444h65C221-4 168 177 168 321c0 157 54 308 132 444z"/><glyph unicode=")" horiz-adv-x="313" d="M77-126c45 70 73 124 97 187 28 77 51 172 51 259 0 97-27 262-148 445H12c24-39 63-104 96-216 15-50 36-139 36-231 0-90-19-253-132-444z"/><glyph unicode="%" horiz-adv-x="896" d="M849 214c0 39-3 76-14 110-32 100-102 126-150 126-33 0-64-12-87-31-31-24-51-62-62-100-10-33-13-67-13-100 0-31 0-141 72-197 26-20 59-31 92-31 109 0 160 97 162 223m-65-1c0-27-3-165-96-165-56 0-80 49-90 84-7 27-10 56-10 88 0 25 2 49 7 74 3 18 19 97 90 97 69 0 87-75 91-91 6-28 8-57 8-87M566 682L248-3l55-26 317 685M353 450c1 162-81 233-165 233C77 683 26 564 26 451c0-106 47-227 164-227 34 0 68 12 93 33 32 27 69 85 70 193m-65 0c0-51-6-112-39-143-16-16-38-25-59-25-99 0-99 145-99 174 0 25 2 50 7 75 9 43 33 95 91 95 21 0 43-11 59-26 34-35 40-100 40-150z"/><glyph unicode="." horiz-adv-x="229" d="M64 113V0h99v113z"/><glyph unicode="·" horiz-adv-x="229" d="M64 352V240h99v112z"/><glyph unicode="‰" horiz-adv-x="1250" d="M849 213c0 39-3 77-14 111-32 100-102 126-150 126-33 0-64-12-87-31-31-24-51-62-62-100-10-33-13-67-13-101 0-31 0-140 72-196 26-20 59-31 92-31 109 0 160 97 162 222m-65 0c0-28-3-165-96-165-56 0-80 48-90 84-7 27-10 55-10 88 0 25 2 49 7 74 3 18 19 97 90 97 69 0 87-75 91-91 6-28 8-57 8-87M565 681L248-3l55-25 317 683M353 450c1 162-81 233-165 233C77 683 26 565 26 451c0-106 47-227 164-227 34 0 68 12 93 33 32 27 69 85 70 193m-65 0c0-50-6-111-39-143-16-16-38-25-59-25-99 0-99 146-99 174 0 25 2 50 7 75 9 43 33 95 91 95 21 0 43-10 59-26 34-34 40-100 40-150m776 0c-13 0-124 0-156-154-7-31-9-59-9-83C899 89 957-9 1062-9c103 0 165 91 165 231 0 158-82 228-163 228m-99-229c0 141 57 171 97 171 84 0 98-103 98-172 0-10-1-72-18-113-5-13-25-58-78-58-78 0-99 87-99 172z"/><glyph unicode="+" horiz-adv-x="667" d="M372 251h251v80H372v249h-80V331H43v-80h249V0h80z"/><glyph unicode="±" horiz-adv-x="667" d="M374 377h251v79H374v242h-79V456H41v-79h254V134h79m251-55H41V0h584z"/><glyph unicode="q" horiz-adv-x="562" d="M416 471v-70c-10 15-35 51-90 72-28 11-53 13-71 13-63 0-120-28-156-69-34-38-60-101-60-188C39 91 111-14 253-14c58 0 95 16 118 30s34 27 45 41v-281h81v695m-223-59c92-2 148-76 148-192 0-43-8-87-35-120-23-28-63-50-114-50-71 0-104 42-113 54-30 42-33 97-33 130 0 51 8 130 80 164 19 9 41 14 67 14z"/><glyph unicode="?" horiz-adv-x="562" d="M336 302c39 4 69 12 92 24 44 23 97 78 97 170 0 141-120 216-230 216-82 0-229-49-224-241h87c-1 24 0 53 9 80 23 68 76 86 127 86 72 0 149-43 149-130 0-52-31-86-58-101-19-10-41-15-63-17-21-2-44-3-65-3V150h79m-84-53V0h88v97z"/><glyph unicode="¿" horiz-adv-x="562" d="M226 404C59 389 37 258 37 210 37 86 139-6 268-6c104 0 227 65 223 238h-87c1-30-1-55-8-79-27-80-97-84-127-84-91 0-150 57-150 131 0 51 30 84 58 100 19 10 41 14 63 17 21 2 44 3 65 2v237h-79m85 53v97h-89v-97z"/><glyph unicode="&quot;" horiz-adv-x="396" d="M343 690c1 13 1 26-5 36-5 9-19 23-44 23-24 0-54-14-54-52 0-6 0-12 1-19l39-244h23M156 690c0 13 0 26-6 36-5 9-19 23-43 23s-55-14-55-52c0-6 1-12 1-19l39-244h23z"/><glyph unicode="„" horiz-adv-x="375" d="M63 109V0h44c-5-79-25-135-33-156h47c31 81 39 120 41 214v51m50 0V0h43c-4-79-24-135-32-156h46c31 81 40 120 42 214v51z"/><glyph unicode="“" horiz-adv-x="375" d="M311 440v109h-43c2 54 13 107 32 157h-46c-35-89-40-127-42-215v-51m-50 0v109h-43c3 54 13 107 33 157h-47c-34-89-39-127-42-215v-51z"/><glyph unicode="”" horiz-adv-x="375" d="M63 706V596h44c-5-82-26-139-33-156h47c31 81 39 120 41 214v52m50 0V596h43c-4-82-26-139-32-156h46c31 81 40 120 42 214v52z"/><glyph unicode="‘" horiz-adv-x="229" d="M162 440v109h-43c3 54 14 107 33 157h-47c-34-89-39-126-42-215v-51z"/><glyph unicode="’" horiz-adv-x="229" d="M63 706V596h44c-5-82-26-139-33-156h47c27 72 40 116 41 214v52z"/><glyph unicode="‚" horiz-adv-x="229" d="M63 109V0h44c-5-79-25-135-33-156h47c31 81 39 120 41 214v51z"/><glyph unicode="'" horiz-adv-x="208" d="M156 690c0 13 0 26-6 36-5 9-19 23-43 23s-55-14-55-52c0-6 1-12 1-19l39-244h23z"/><glyph unicode="r" horiz-adv-x="313" d="M65 471V0h80v218c0 43-1 84 20 119 23 38 63 56 109 56 13 0 23-1 33-2v86c-32-1-117-3-162-92v86z"/><glyph unicode="®" horiz-adv-x="833" d="M266 580V131h80v201h28c58-1 89-6 101-70 2-11 9-59 11-69 7-39 14-55 18-62h91c-20 40-24 65-34 133-10 61-28 78-64 94 57 15 92 50 92 107 0 43-24 87-72 104-28 10-59 11-105 11m-65-62h51c53 0 63 0 79-7 25-11 32-36 32-53 0-63-64-62-96-62h-66m426-45c1 195-150 358-357 358-192 0-355-151-355-357C61 142 231-3 416-3c201 0 356 157 357 354m-32 0C740 172 599 29 417 29 239 29 93 171 93 352c0 179 142 325 325 325 185 0 324-148 323-326z"/><glyph unicode="˚" horiz-adv-x="271" d="M41 608c0-52 42-94 94-94s94 42 94 94-42 94-94 94-94-42-94-94m43 1c0 28 23 51 51 51s51-23 51-51-23-51-51-51-51 23-51 51z"/><glyph unicode="s" horiz-adv-x="479" d="M265 199c57-11 98-21 98-75 0-51-41-78-111-78-32 0-67 3-95 27-36 31-36 71-35 92l-90-14c9-79 55-117 70-128 38-27 93-38 146-38 130 0 198 72 198 149 0 99-101 123-157 136l-45 11c-62 15-113 29-113 74 0 32 31 69 93 69 24 0 60-4 91-28s33-47 34-76l86 11c-16 111-112 154-202 154-109 0-182-54-182-140 0-98 93-119 169-137z"/><glyph unicode="š" horiz-adv-x="479" d="M265 199c57-11 98-21 98-75 0-51-41-78-111-78-32 0-67 3-95 27-36 31-36 71-35 92l-90-14c9-79 55-117 70-128 38-27 93-38 146-38 130 0 198 72 198 149 0 99-101 123-157 136l-45 11c-62 15-113 29-113 74 0 32 31 69 93 69 24 0 60-4 91-28s33-47 34-76l86 11c-16 111-112 154-202 154-109 0-182-54-182-140 0-98 93-119 169-137m75 465l-59-96-61 96h-74l102-151h67l96 151z"/><glyph unicode="§" horiz-adv-x="625" d="M541 697c-148 74-213 74-244 74-146 0-207-90-207-159 0-43 20-66 41-88-29-21-94-66-94-154 0-75 47-117 78-140s93-59 175-90l64-28c46-18 92-36 92-84 0-36-31-71-103-71-81 0-157 31-225 76L79-42c56-29 118-53 162-65 35-10 68-15 99-15 131 0 205 86 205 161 0 22-8 66-50 101 46 26 94 82 94 156 0 88-63 135-84 150-30 21-105 58-166 78l-74 28c-38 14-84 30-84 75s53 71 114 71c89 0 172-51 205-71M275 456l90-38c70-30 137-67 137-131 0-48-44-89-87-104l-86 39c-137 62-201 92-201 158 0 58 61 93 83 101z"/><glyph unicode=";" horiz-adv-x="271" d="M107 490V380h99v110m-99-379V0h40c0-52-9-104-25-154h46c25 58 38 106 38 204v61z"/><glyph unicode="7" horiz-adv-x="583" d="M96 466h72v128h267c1-30-1-40-33-87l-30-46C260 275 189 137 168 0h106c16 135 83 271 161 417l35 61c36 60 37 66 39 99v97H96z"/><glyph unicode="6" horiz-adv-x="583" d="M510 506c-9 34-25 93-72 131-33 26-85 43-134 43-182 0-220-175-228-212-11-54-14-101-14-139 0-139 30-201 61-244C181 6 258-6 304-6c140 0 224 110 224 234 0 136-103 217-213 217-70 0-125-28-167-82 4 64 8 128 48 186 24 36 66 55 109 55 97 0 113-86 117-110m17-272c0-71-41-148-134-148-86 0-143 65-143 146 0 74 48 144 141 144 90 0 136-70 136-142z"/><glyph unicode="/" horiz-adv-x="333" d="M246 702L13 0h77l231 702z"/><glyph horiz-adv-x="271"/><glyph unicode="£" horiz-adv-x="667" d="M501 282v65H291l-35 54c-19 29-42 68-42 123 0 91 78 128 148 128 94 0 150-62 150-145l-1-18 104 11c-6 150-119 224-247 224-129 0-262-75-262-210 0-63 27-110 61-167H36v-65h177c23-34 44-80 44-119 0-6 0-9-1-16-44 14-81 18-102 18-74 0-108-45-108-88 0-53 47-92 113-92 36 0 76 13 102 30 7 4 21 14 39 28l52-24c33-14 79-31 133-31 134 0 163 136 168 184l-94 7c-3-77-47-108-98-108-48 0-101 27-124 41 3 11 11 37 11 77 0 28-4 40-21 93M227 78c-31-29-58-32-70-32-24 0-32 16-32 24s8 25 33 25c17 0 60-14 69-17z"/><glyph unicode="t" horiz-adv-x="292" d="M174 620H92V471H17v-66h75V99C91 37 91-8 183-8c30 0 63 6 77 8v66c-16-5-37-11-52-11-34 0-34 24-34 80v270h86v66h-86z"/><glyph unicode="þ" horiz-adv-x="562" d="M64-223h79V56c40-49 96-70 159-70 149 0 221 115 221 249 0 170-110 251-212 251-50 0-99-21-124-39-11-8-28-25-44-43v303H64m224-296c91 4 153-63 153-175 0-95-42-142-68-159-25-16-55-21-83-21-96 0-147 70-147 172 0 107 54 180 145 183z"/><glyph unicode="3" horiz-adv-x="583" d="M152 448c2 43 5 85 35 119 33 37 77 39 97 39 75 0 135-43 135-114 0-107-118-107-148-107-22 0-32 1-50 2v-82c20 2 32 3 57 3 46 0 157 0 157-114 0-29-7-64-38-90-37-29-87-31-109-31-143 0-154 87-157 150H40c1-36 5-91 43-142C131 17 213-6 294-6 467-6 529 97 529 189c0 111-76 148-102 161 30 18 50 32 66 64 11 24 16 54 16 78 0 91-66 188-224 188-80 0-164-28-202-119-15-36-17-67-20-108z"/><glyph unicode="¾" horiz-adv-x="875" d="M100 521c3 42 7 105 85 105 51 0 85-31 85-72 0-29-16-44-24-50-19-15-41-17-60-17h-32v-58h39c38 0 88-4 88-71 0-76-76-76-93-76-97 0-99 69-100 94H21c2-36 10-152 172-152 122 0 157 75 157 133 0 85-60 99-85 105 22 7 72 23 72 91 0 83-70 130-152 130-20 0-101 0-136-82-12-28-13-56-14-78m574 159L291-3l55-25 317 684M522 166v-57h203V0h63v109h65v55h-64v286h-53M588 165l140 191-2-191z"/><glyph unicode="³" horiz-adv-x="375" d="M100 521c3 42 7 105 85 105 51 0 85-31 85-72 0-29-16-44-24-50-19-15-41-16-60-17h-32v-58h25c43 1 102 2 102-71 0-76-76-76-93-76-97 0-99 69-100 94H21c2-36 10-152 172-152 122 0 157 75 157 133 0 85-60 99-85 105 22 7 72 23 72 91 0 83-70 130-152 130-20 0-101 0-136-82-12-28-13-56-14-78z"/><glyph unicode="˜" horiz-adv-x="271" d="M234 635c-2-11-7-31-31-31-7 0-16 0-53 14-24 9-52 20-73 20-67 0-83-71-87-99h49c3 11 8 31 33 31 12 0 17-2 62-19 39-14 54-16 66-16 61 0 78 72 82 100z"/><glyph unicode="™" horiz-adv-x="687" d="M636 706h-79l-81-262-83 262h-79V374h56l-2 205-4 67 17-55 67-217h52l68 217 16 56-3-68-2-205h57M181 657h105v49H16v-49h107V374h58z"/><glyph unicode="2" horiz-adv-x="583" d="M196 77c81 54 90 60 140 102 59 50 176 149 176 289 0 110-77 212-218 212-68 0-124-24-159-57-54-52-58-122-58-154 0-39 6-60 12-80h88c-5 19-12 48-12 80 0 91 49 133 127 133 80 0 127-49 127-130 0-91-59-162-126-225-65-62-134-120-214-161V0h441v77z"/><glyph unicode="²" horiz-adv-x="375" d="M115 487c-4 14-8 29-8 52 0 54 29 87 79 87 54 0 84-36 84-80 0-92-129-196-227-252v-61h297v56H132c27 18 100 66 149 125 28 34 54 76 54 130 0 77-53 139-145 139-88 0-147-56-147-143 0-22 3-38 6-53z"/><glyph unicode="u" horiz-adv-x="521" d="M65 195c0-79 0-120 34-159 15-18 49-48 115-48 98 0 146 64 161 84V0h79v471h-79V235c0-56 0-93-29-127-20-25-57-45-106-45-37 0-86 13-94 74-2 12-2 16-2 65v269H65z"/><glyph unicode="ú" horiz-adv-x="521" d="M65 195c0-79 0-120 34-159 15-18 49-48 115-48 98 0 146 64 161 84V0h79v471h-79V235c0-56 0-93-29-127-20-25-57-45-106-45-37 0-86 13-94 74-2 12-2 16-2 65v269H65m208 195l-41-144h41l86 144z"/><glyph unicode="û" horiz-adv-x="521" d="M65 195c0-79 0-120 34-159 15-18 49-48 115-48 98 0 146 64 161 84V0h79v471h-79V235c0-56 0-93-29-127-20-25-57-45-106-45-37 0-86 13-94 74-2 12-2 16-2 65v269H65m136 52l59 95 61-95h75L292 674h-67l-94-151z"/><glyph unicode="ü" horiz-adv-x="521" d="M65 195c0-79 0-120 34-159 15-18 49-48 115-48 98 0 146 64 161 84V0h79v471h-79V235c0-56 0-93-29-127-20-25-57-45-106-45-37 0-86 13-94 74-2 12-2 16-2 65v269H65m51 173V541h87v103m110 0V541h88v103z"/><glyph unicode="ù" horiz-adv-x="521" d="M65 195c0-79 0-120 34-159 15-18 49-48 115-48 98 0 146 64 161 84V0h79v471h-79V235c0-56 0-93-29-127-20-25-57-45-106-45-37 0-86 13-94 74-2 12-2 16-2 65v269H65m100 194l82-144h47l-41 144z"/><glyph unicode="_" horiz-adv-x="500" d="M510-75H-10v-50h520z"/><glyph unicode="v" horiz-adv-x="437" d="M220 110L95 471H12L184 0h72l170 471h-82z"/><glyph unicode="w" horiz-adv-x="729" d="M331 471L215 121 97 471H11L175 0h73l115 351L476 0h70l173 471h-84L512 121 400 471z"/><glyph unicode="x" horiz-adv-x="396" d="M202 309l-94 162H16l139-232L8 0h91l98 168L297 0h90L245 239l142 232h-90z"/><glyph unicode="y" horiz-adv-x="437" d="M342 471L217 97 99 471H14L174-3l-20-57c-23-65-36-99-94-99-23 0-40 5-51 8v-71c17-5 41-11 73-11 88 0 111 52 145 147l198 557z"/><glyph unicode="ý" horiz-adv-x="437" d="M342 471L217 97 99 471H14L174-3l-20-57c-23-65-36-99-94-99-23 0-40 5-51 8v-71c17-5 41-11 73-11 88 0 111 52 145 147l198 557M237 666l-41-144h41l86 144z"/><glyph unicode="ÿ" horiz-adv-x="437" d="M342 471L217 97 99 471H14L174-3l-20-57c-23-65-36-99-94-99-23 0-40 5-51 8v-71c17-5 41-11 73-11 88 0 111 52 145 147l198 557M78 644V541h87v103m110 0V541h88v103z"/><glyph unicode="¥" horiz-adv-x="625" d="M311 390L126 677H14l169-249H69v-71h162l33-52H69v-71h194V0h94v234h195v72H355l38 52h159v72H440l171 247H500z"/><glyph unicode="z" horiz-adv-x="417" d="M38 471v-69h246L13 66V0h376v66H110l273 341v64z"/><glyph unicode="ž" horiz-adv-x="417" d="M38 471v-69h246L13 66V0h376v66H110l273 341v64M274 673l-59-96-61 96H80l102-151h67l96 151z"/><glyph unicode="0" horiz-adv-x="583" d="M535 337c0 228-116 343-245 343-154 0-241-150-241-349C49 136 139-6 292-6c152 0 243 141 243 343m-90-1c0-60-10-265-152-265-72 0-105 52-118 76-29 55-37 126-37 189 0 47 5 136 38 194 38 67 92 72 117 72 119 0 153-148 152-266z"/></font><font horiz-adv-x="1000"><font-face font-family="AkzidenzGroteskBE-Bold" underline-position="-100" underline-thickness="50"/><glyph unicode="A" horiz-adv-x="708" d="M261 706L-1 0h188l35 113h260L517 0h188L445 706m-3-466H263c16 53 43 136 58 189 10 36 20 73 29 109z"/><glyph unicode="Æ" horiz-adv-x="1125" d="M412 706L-5 0h198l95 171h247V0h571v138H712v168h336v135H711v130h361v135M535 301H359l176 315z"/><glyph unicode="Á" horiz-adv-x="708" d="M261 706L-1 0h188l35 113h260L517 0h188L445 706m-3-466H263c16 53 43 136 58 189 10 36 20 73 29 109m-81 244h96l145 115H330z"/><glyph unicode="Â" horiz-adv-x="708" d="M261 706L-1 0h188l35 113h260L517 0h188L445 706m-3-466H263c16 53 43 136 58 189 10 36 20 73 29 109M199 779h116l38 51 40-51h116l-88 115H289z"/><glyph unicode="Ä" horiz-adv-x="708" d="M261 706L-1 0h188l35 113h260L517 0h188L445 706m-3-466H263c16 53 43 136 58 189 10 36 20 73 29 109m31 358V780h161v116M159 779h160v117H159z"/><glyph unicode="À" horiz-adv-x="708" d="M261 706L-1 0h188l35 113h260L517 0h188L445 706m-3-466H263c16 53 43 136 58 189 10 36 20 73 29 109M194 898l146-115h101l-63 115z"/><glyph unicode="Å" horiz-adv-x="708" d="M261 706L-1 0h188l35 113h260L517 0h188L445 706m-3-466H263c16 53 43 136 58 189 10 36 20 73 29 109m-29 263c-7 8-11 18-11 28 0 22 17 39 39 39s39-17 39-39-18-39-39-39c-10 0-20 4-28 11m-41-41c18-18 43-29 69-29 54 0 98 45 98 98 0 54-44 98-98 98-53 0-98-44-98-98 0-25 11-51 29-69z"/><glyph unicode="Ã" horiz-adv-x="708" d="M261 706L-1 0h188l35 113h260L517 0h188L445 706m-3-466H263c16 53 43 136 58 189 10 36 20 73 29 109m-99 236c3 15 9 42 37 42 17 0 36-8 64-21 53-24 75-26 89-26 37 0 61 26 71 39 18 26 22 60 25 89h-68c-5-13-15-39-41-39-13 0-18 2-65 23-15 7-46 20-76 20s-51-13-65-27c-29-28-34-65-39-100z"/><glyph unicode="B" horiz-adv-x="708" d="M68 0h298c81 0 138 3 191 26 88 39 117 116 117 171 0 40-14 79-39 106-39 44-96 53-139 60 38 8 106 22 138 94 3 7 13 30 13 68 0 67-35 136-122 164-43 14-110 17-184 17H68m313-132c34 0 93-3 93-71 0-73-65-75-105-76H236v147m153-275c36-1 106-2 106-87 0-81-77-83-136-84H236v171z"/><glyph unicode="C" horiz-adv-x="688" d="M542 232c-24-41-61-105-153-105-95 0-174 77-174 232 0 118 60 224 174 224 29 0 63-8 97-35 31-26 43-50 53-73l140 70c-20 35-43 74-92 113-53 42-125 70-206 70-200 0-342-165-342-374C39 115 190-21 377-21c98 0 167 41 197 62 56 39 81 79 107 120z"/><glyph unicode="Ç" horiz-adv-x="688" d="M542 232c-24-42-62-105-153-105-97 0-174 79-174 232 0 119 61 224 174 224 28 0 62-7 97-35 31-26 42-50 53-73l140 70c-20 35-43 74-92 113-54 42-126 70-206 70-200 0-342-164-342-374C39 213 99 20 325-17l-29-51 13-18c9 1 18 3 27 3 33 0 56-17 56-40 0-18-15-31-36-31-26 0-43 19-53 32l-28-23c25-30 60-52 99-52 52 0 96 37 96 82 0 20-11 65-76 65-13 0-26-2-39-3l15 32c74-1 143 20 204 62 56 39 81 79 107 120z"/><glyph unicode="D" horiz-adv-x="729" d="M67 0h278c74 1 271 5 336 223 9 30 18 75 18 136 0 99-28 198-101 264-90 80-220 82-306 83H67m249-149c54 0 122 1 170-63 32-44 37-93 37-142 0-203-130-208-224-210h-54v415z"/><glyph unicode="E" horiz-adv-x="646" d="M68 0h553v139H244v168h323v134H244v128h346v137H68z"/><glyph unicode="É" horiz-adv-x="646" d="M68 0h553v139H244v168h323v134H244v128h346v137H68m170 76h96l145 115H299z"/><glyph unicode="Ê" horiz-adv-x="646" d="M68 0h553v139H244v168h323v134H244v128h346v137H68m100 73h116l38 51 40-51h116l-88 115H258z"/><glyph unicode="Ë" horiz-adv-x="646" d="M68 0h553v139H244v168h323v134H244v128h346v137H68m285 192V782h161v116M131 781h160v117H131z"/><glyph unicode="È" horiz-adv-x="646" d="M68 0h553v139H244v168h323v134H244v128h346v137H68m95 192l146-115h101l-63 115z"/><glyph unicode="Ð" horiz-adv-x="729" d="M67 0h278c74 1 271 5 336 223 9 30 18 74 18 136 0 99-28 198-101 264-90 80-220 82-306 83H67V420H0v-79h67m178 216h71c55 0 122 1 170-63 32-44 37-92 37-141 0-204-130-209-224-211h-54v199h174v79H245z"/><glyph unicode="€" horiz-adv-x="562" d="M517 654c-22 15-80 35-155 35-162 0-240-94-265-235H49l-31-89h71c-1-8-2-16-2-26 0-13 1-22 2-30H49l-31-90h80C124 60 216-14 362-14c83 0 136 19 155 33v126c-24-21-69-42-134-42-84 0-131 40-145 116h162l32 90H225c0 7-1 19-1 30 0 10 1 19 1 26h228l31 89H237c14 75 59 117 145 117 68 0 113-21 135-43z"/><glyph unicode="F" horiz-adv-x="625" d="M67 706V0h176v285h337v137H243v148h366v136z"/><glyph unicode="G" horiz-adv-x="750" d="M566 0h138v392H397V258h158c-5-37-11-75-57-105-29-19-65-27-97-27-54 0-102 22-129 51-34 35-56 100-56 180 0 118 51 229 185 229 98 0 139-62 164-100l134 81c-33 43-124 163-311 163-201 0-348-151-348-378C40 144 161-16 358-16c119 0 179 55 208 82z"/><glyph unicode="H" horiz-adv-x="750" d="M504 706V451H246v255H68V0h178v301h258V0h177v706z"/><glyph unicode="I" horiz-adv-x="313" d="M67 706V0h176v706z"/><glyph unicode="Í" horiz-adv-x="313" d="M67 706V0h176v706M71 782h96l145 115H132z"/><glyph unicode="Î" horiz-adv-x="313" d="M67 706V0h176v706M1 779h116l38 51 40-51h116l-88 115H91z"/><glyph unicode="Ï" horiz-adv-x="313" d="M67 706V0h176v706m-57 192V782h161v116M-36 781h160v117H-36z"/><glyph unicode="Ì" horiz-adv-x="313" d="M67 706V0h176v706M-4 898l146-115h101l-63 115z"/><glyph unicode="J" horiz-adv-x="396" d="M154 216c0-62-13-73-108-73H16V0h118c57 0 123 5 162 49 35 39 35 83 35 148v509H154z"/><glyph unicode="K" horiz-adv-x="708" d="M68 0h168v207l108 113L533 0h199L462 444l250 262H500L236 418v288H68z"/><glyph unicode="L" horiz-adv-x="542" d="M68 0h452v149H244v558H68z"/><glyph unicode="Ł" horiz-adv-x="542" d="M244 707H68V303L0 256v-85l68 47V0h452v149H244v191l191 133v85L244 425z"/><glyph unicode="M" horiz-adv-x="917" d="M591 706L478 284c-8-33-9-38-19-87l-25 113-108 396H68V0h171l-9 445c-3 67-3 79-6 135l31-126L383 0h152l133 474c8 30 9 35 18 75l6 25-2-71L679 0h169v706z"/><glyph unicode="N" horiz-adv-x="729" d="M67 0h169l-5 444c48-94 60-116 124-221L487 0h173v706H491l8-453c-33 62-50 94-106 193L240 706H67z"/><glyph unicode="Ñ" horiz-adv-x="729" d="M67 0h169l-5 444c48-94 60-116 124-221L487 0h173v706H491l8-453c-33 62-50 94-106 193L240 706H67m195 68c3 15 9 42 37 42 17 0 36-8 64-21 53-24 75-26 89-26 37 0 61 26 71 39 18 26 22 60 25 89h-68c-5-13-15-39-41-39-13 0-18 2-65 23-15 7-46 20-76 20s-51-13-65-27c-29-28-34-65-39-100z"/><glyph unicode="O" horiz-adv-x="792" d="M615 54c78 63 134 173 134 295 0 48-14 283-230 358-43 15-87 21-129 21-227 0-348-181-348-372C42 152 169-20 393-20c73 0 153 17 222 74m-43 283c-5-148-95-208-179-208-83 0-177 62-177 230 0 128 68 222 175 222 48 0 94-20 124-52 40-43 60-118 57-192z"/><glyph unicode="Œ" horiz-adv-x="1104" d="M514 0h568v140H692v162h335v137H692v129h356v138H516v-19c-38 18-75 36-151 36-58 0-148-17-214-80C68 566 42 453 42 354 42 101 197-14 360-14c72 0 114 15 154 29m2 140c-32-16-66-33-116-33-82 0-133 49-157 104-19 44-23 97-23 129 0 72 14 146 69 193 27 23 67 39 114 39 61 0 90-20 113-35z"/><glyph unicode="Ó" horiz-adv-x="792" d="M615 54c78 63 134 173 134 295 0 48-14 283-230 358-43 15-87 21-129 21-227 0-348-181-348-372C42 152 169-20 393-20c73 0 153 17 222 74m-43 283c-5-148-95-208-179-208-83 0-177 62-177 230 0 128 68 222 175 222 48 0 94-20 124-52 40-43 60-118 57-192M311 782h96l145 115H372z"/><glyph unicode="Ô" horiz-adv-x="792" d="M615 54c78 63 134 173 134 295 0 48-14 283-230 358-43 15-87 21-129 21-227 0-348-181-348-372C42 152 169-20 393-20c73 0 153 17 222 74m-43 283c-5-148-95-208-179-208-83 0-177 62-177 230 0 128 68 222 175 222 48 0 94-20 124-52 40-43 60-118 57-192M241 779h116l38 51 40-51h116l-88 115H331z"/><glyph unicode="Ö" horiz-adv-x="792" d="M615 54c78 63 134 173 134 295 0 48-14 283-230 358-43 15-87 21-129 21-227 0-348-181-348-372C42 152 169-20 393-20c73 0 153 17 222 74m-43 283c-5-148-95-208-179-208-83 0-177 62-177 230 0 128 68 222 175 222 48 0 94-20 124-52 40-43 60-118 57-192M427 896V780h161v116M205 779h160v117H205z"/><glyph unicode="Ò" horiz-adv-x="792" d="M615 54c78 63 134 173 134 295 0 48-14 283-230 358-43 15-87 21-129 21-227 0-348-181-348-372C42 152 169-20 393-20c73 0 153 17 222 74m-43 283c-5-148-95-208-179-208-83 0-177 62-177 230 0 128 68 222 175 222 48 0 94-20 124-52 40-43 60-118 57-192M236 898l146-115h101l-63 115z"/><glyph unicode="Ø" horiz-adv-x="771" d="M-3 54L51-6l93 84c55-49 121-98 239-98 107 0 174 33 233 87 30 28 115 111 115 289 0 111-30 166-54 208l94 85-54 59-88-80c-65 62-133 99-237 99-67 0-189-11-282-137-59-82-72-173-72-235 0-115 35-177 56-213m126 115c-7 34-12 60-12 100 0 52 7 125 63 181 21 22 55 49 117 49 51 0 89-23 125-63m37-76c8-34 15-62 15-101 0-140-83-223-172-223-36 0-87 14-119 43-5 5-10 11-14 16z"/><glyph unicode="Õ" horiz-adv-x="792" d="M615 54c78 63 134 173 134 295 0 48-14 283-230 358-43 15-87 21-129 21-227 0-348-181-348-372C42 152 169-20 393-20c73 0 153 17 222 74m-43 283c-5-148-95-208-179-208-83 0-177 62-177 230 0 128 68 222 175 222 48 0 94-20 124-52 40-43 60-118 57-192M293 774c3 15 9 42 37 42 17 0 36-8 64-21 53-24 75-26 89-26 37 0 61 26 71 39 18 26 22 60 25 89h-68c-5-13-15-39-41-39-13 0-18 2-65 23-15 7-46 20-76 20s-51-13-65-27c-29-28-34-65-39-100z"/><glyph unicode="P" horiz-adv-x="688" d="M67 0h177v231h117c96 2 226 5 287 131 16 33 24 71 24 110 0 48-13 105-40 145-62 89-165 89-281 89H67m289-130c51 0 140 0 140-103 0-109-80-111-146-111H244v214z"/><glyph unicode="Q" horiz-adv-x="792" d="M817 61c-71 12-96 26-137 63 27 45 70 114 70 235 0 197-132 368-357 368-217 0-351-165-351-371 0-91 26-204 105-281 61-59 152-95 247-95 75 0 121 22 178 49 93-70 118-79 194-93M384 578c38 2 109-7 151-73 17-26 40-83 40-149 0-122-58-227-177-227-107 0-180 86-180 228 0 96 40 214 166 221z"/><glyph unicode="R" horiz-adv-x="708" d="M67 0h177v252h111L495 0h195L527 282c48 18 145 53 145 195 0 64-23 120-56 157-65 70-157 71-231 72H67m327-132c37-1 102-4 102-94 0-94-81-96-106-97H244v191z"/><glyph unicode="S" horiz-adv-x="688" d="M9 127C53 76 132-16 331-16c99 0 201 21 265 95 37 43 56 99 56 150 0 80-41 143-122 173-40 14-141 33-216 42-30 4-90 12-90 66 0 34 35 74 105 74 45 0 90-17 115-31 28-16 48-35 70-57l130 93c-61 55-149 134-312 134-122 0-284-54-284-236 0-152 147-183 190-192 38-8 77-13 116-18 52-7 123-16 123-72 0-49-60-82-130-82-41 0-89 9-136 34-35 19-50 35-68 55z"/><glyph unicode="Š" horiz-adv-x="688" d="M9 127C53 76 132-16 331-16c99 0 201 21 265 95 37 43 56 99 56 150 0 80-41 143-122 173-40 14-141 33-216 42-30 4-90 12-90 66 0 34 35 74 105 74 45 0 90-17 115-31 28-16 48-35 70-57l130 93c-61 55-149 134-312 134-122 0-284-54-284-236 0-152 147-183 190-192 38-8 77-13 116-18 52-7 123-16 123-72 0-49-60-82-130-82-41 0-89 9-136 34-35 19-50 35-68 55m203 636l-41 50H188l90-115h133l89 115H384z"/><glyph unicode="T" horiz-adv-x="562" d="M7 567h184V0h177v567h183v140H7z"/><glyph unicode="Þ" horiz-adv-x="688" d="M67 0h177v128h117c96 2 226 5 287 131 16 33 24 71 24 110 0 48-13 105-40 145-62 89-165 89-281 89H244v103H67m289-233c51 0 140 0 140-103 0-108-80-111-146-111H244v214z"/><glyph unicode="U" horiz-adv-x="729" d="M488 706V267c-1-55-1-137-121-137-44 0-92 11-114 48-12 22-13 52-13 88v440H62V312c-1-96-1-220 135-290 48-25 111-38 164-38 30 0 187 6 263 128 39 64 40 132 41 200v394z"/><glyph unicode="Ú" horiz-adv-x="729" d="M488 706V267c-1-55-1-137-121-137-44 0-92 11-114 48-12 22-13 52-13 88v440H62V312c-1-96-1-220 135-290 48-25 111-38 164-38 30 0 187 6 263 128 39 64 40 132 41 200v394m-385 76h96l145 115H341z"/><glyph unicode="Û" horiz-adv-x="729" d="M488 706V267c-1-55-1-137-121-137-44 0-92 11-114 48-12 22-13 52-13 88v440H62V312c-1-96-1-220 135-290 48-25 111-38 164-38 30 0 187 6 263 128 39 64 40 132 41 200v394m-455 73h116l38 51 40-51h116l-88 115H300z"/><glyph unicode="Ü" horiz-adv-x="729" d="M488 706V267c-1-55-1-137-121-137-44 0-92 11-114 48-12 22-13 52-13 88v440H62V312c-1-96-1-220 135-290 48-25 111-38 164-38 30 0 187 6 263 128 39 64 40 132 41 200v394M394 896V780h161v116M172 779h160v117H172z"/><glyph unicode="Ù" horiz-adv-x="729" d="M488 706V267c-1-55-1-137-121-137-44 0-92 11-114 48-12 22-13 52-13 88v440H62V312c-1-96-1-220 135-290 48-25 111-38 164-38 30 0 187 6 263 128 39 64 40 132 41 200v394M205 898l146-115h101l-63 115z"/><glyph unicode="V" horiz-adv-x="667" d="M333 204L187 706H-1L241 0h180l245 706H478z"/><glyph unicode="W" horiz-adv-x="979" d="M409 706l-58-218c-37-140-44-167-70-307-21 153-29 190-105 525H0L179 0h182l68 238c40 135 42 142 60 229 21-99 23-104 61-234 23-77 44-155 66-233h182l179 706H802c-15-71-31-143-46-215-32-144-37-168-58-308-22 137-29 159-68 295-23 76-44 152-65 228z"/><glyph unicode="X" horiz-adv-x="771" d="M383 493L247 706H38l235-323L0 0h202l183 267L566 0h202L493 383l233 323H521z"/><glyph unicode="Y" horiz-adv-x="708" d="M267 329V0h174v334l267 372H507L386 517c-18-29-20-33-29-53L205 706H2z"/><glyph unicode="Ý" horiz-adv-x="708" d="M267 329V0h174v334l267 372H507L386 517c-18-29-20-33-29-53L205 706H2m267 76h96l145 115H330z"/><glyph unicode="Ÿ" horiz-adv-x="708" d="M267 329V0h174v334l267 372H507L386 517c-18-29-20-33-29-53L205 706H2m382 192V782h161v116M162 781h160v117H162z"/><glyph unicode="Z" horiz-adv-x="625" d="M38 568h358L5 132V0h601v139H223l385 429v138H38z"/><glyph unicode="Ž" horiz-adv-x="625" d="M38 568h358L5 132V0h601v139H223l385 429v138H38m276 142l-41 50H156l90-115h133l89 115H352z"/><glyph unicode="a" horiz-adv-x="583" d="M220 374c4 19 13 61 81 61 55 0 57-40 59-64v-28c-65-12-164-30-206-48-43-18-110-66-110-150C44 72 95-14 215-14c77 0 121 33 160 62V0h151c-12 18-15 26-15 82v304c0 135-155 150-219 150-61 0-123-8-171-46-47-37-52-80-55-116m294-124c-1-54-3-102-54-134-16-10-34-17-53-17-36 0-58 28-58 53 0 40 40 55 66 65z"/><glyph unicode="á" horiz-adv-x="583" d="M220 374c4 19 13 61 81 61 55 0 57-40 59-64v-28c-65-12-164-30-206-48-43-18-110-66-110-150C44 72 95-14 215-14c77 0 121 33 160 62V0h151c-12 18-15 26-15 82v304c0 135-155 150-219 150-61 0-123-8-171-46-47-37-52-80-55-116m294-124c-1-54-3-102-54-134-16-10-34-17-53-17-36 0-58 28-58 53 0 40 40 55 66 65m-33 369h102l153 133H301z"/><glyph unicode="â" horiz-adv-x="583" d="M220 374c4 19 13 61 81 61 55 0 57-40 59-64v-28c-65-12-164-30-206-48-43-18-110-66-110-150C44 72 95-14 215-14c77 0 121 33 160 62V0h151c-12 18-15 26-15 82v304c0 135-155 150-219 150-61 0-123-8-171-46-47-37-52-80-55-116m294-124c-1-54-3-102-54-134-16-10-34-17-53-17-36 0-58 28-58 53 0 40 40 55 66 65M129 588h118l46 63 49-62h118L357 720H230z"/><glyph unicode="´" horiz-adv-x="271" d="M8 586h102l153 133H81z"/><glyph unicode="ä" horiz-adv-x="583" d="M220 374c4 19 13 61 81 61 55 0 57-40 59-64v-28c-65-12-164-30-206-48-43-18-110-66-110-150C44 72 95-14 215-14c77 0 121 33 160 62V0h151c-12 18-15 26-15 82v304c0 135-155 150-219 150-61 0-123-8-171-46-47-37-52-80-55-116m294-124c-1-54-3-102-54-134-16-10-34-17-53-17-36 0-58 28-58 53 0 40 40 55 66 65m92 503V596h157v124m-408 0V596h157v124z"/><glyph unicode="æ" horiz-adv-x="875" d="M203 375c2 21 4 57 72 57 77 0 76-47 76-82l-17-4c-19-3-104-14-121-17-81-14-152-38-180-123-7-22-8-40-8-51 0-96 78-168 194-168 49 0 115 15 162 46 16 11 29 22 43 34 61-63 136-79 188-79 78 0 145 34 189 76 25 23 37 44 53 71l-119 60c-18-33-48-86-114-86-38 0-68 23-83 39-28 31-31 59-33 89h348c-2 59-6 161-85 238-18 17-66 64-170 64-87 0-129-31-162-56-48 30-90 56-188 56-40 0-88-7-126-29-63-37-70-87-76-135m459-43c8 69 52 97 96 97 73 0 86-64 93-97m-344-73c0-32 1-70-19-104-16-28-46-52-87-52-12 0-67 1-67 58 0 52 58 68 98 77 43 10 48 11 75 21z"/><glyph unicode="à" horiz-adv-x="583" d="M220 374c4 19 13 61 81 61 55 0 57-40 59-64v-28c-65-12-164-30-206-48-43-18-110-66-110-150C44 72 95-14 215-14c77 0 121 33 160 62V0h151c-12 18-15 26-15 82v304c0 135-155 150-219 150-61 0-123-8-171-46-47-37-52-80-55-116m294-124c-1-54-3-102-54-134-16-10-34-17-53-17-36 0-58 28-58 53 0 40 40 55 66 65M130 720l158-133h101l-74 133z"/><glyph unicode="&amp;" horiz-adv-x="688" d="M662 0v112c-10 0-20-1-30-1-47 0-62 17-76 33 43 72 51 91 76 168l-125 46c-11-51-15-63-34-105-39 54-50 69-96 140 63 26 132 79 132 165 0 80-60 152-172 152-119 0-181-68-181-155 0-42 20-77 46-121-49-22-122-55-158-143-10-27-15-54-15-80C29 101 108-7 271-7c97 0 156 35 188 54 36-35 57-47 124-47M318 485c-23 37-34 55-34 76 0 26 24 42 50 42 30 0 49-18 49-43 0-34-31-57-65-75m67-340c-29-16-60-33-98-33-76 0-105 66-105 105 0 61 51 94 82 114z"/><glyph unicode="å" horiz-adv-x="583" d="M220 374c4 19 13 61 81 61 55 0 57-40 59-64v-28c-65-12-164-30-206-48-43-18-110-66-110-150C44 72 95-14 215-14c77 0 121 33 160 62V0h151c-12 18-15 26-15 82v304c0 135-155 150-219 150-61 0-123-8-171-46-47-37-52-80-55-116m294-124c-1-54-3-102-54-134-16-10-34-17-53-17-36 0-58 28-58 53 0 40 40 55 66 65m-53 435c0-54 44-98 98-98s98 44 98 98-44 98-98 98-98-44-98-98m58 0c0 22 18 40 40 40s40-18 40-40-18-40-40-40-40 18-40 40z"/><glyph unicode="^" horiz-adv-x="667" d="M383 706h-91L97 324h117l122 245 116-245h118z"/><glyph unicode="~" horiz-adv-x="667" d="M539 377c-25-30-57-62-98-62-25 0-52 12-73 21l-34 16c-43 20-70 32-107 32-85 0-130-67-145-89l48-87c43 50 59 68 99 68 26 0 49-10 77-23l29-14c40-19 68-32 103-32 72 0 122 55 147 81z"/><glyph unicode="*" horiz-adv-x="354" d="M135 615l20-36-33 28-85 26-23-78 88-25 38 9-34-19-53-76 64-46 53 74 7 42 9-42 52-74 65 47-54 73-38 21 41-4 87 27-25 75-87-29-29-30 17 38v90h-80z"/><glyph unicode="@" horiz-adv-x="896" d="M779 101c-14-15-34-33-59-53-85-64-178-93-266-93-122 0-303 61-303 282 0 218 178 396 369 396 105 0 223-56 223-217 0-143-85-265-128-265-18 0-19 18-19 30 0 33 20 126 27 163l34 158h-91l-9-39c-14 20-39 60-106 60-127 0-217-149-217-287 0-115 64-170 139-170 57 0 96 32 126 68 3-14 15-68 90-68 126 0 238 173 238 354 0 168-112 292-298 292-263 0-460-221-460-474 0-284 239-362 390-362 186 0 307 107 367 164M524 349c1-39-14-103-46-146-22-29-52-48-77-48-11 0-63 4-63 86 0 80 45 192 118 192 38 0 67-30 68-84z"/><glyph unicode="ã" horiz-adv-x="583" d="M220 374c4 19 13 61 81 61 55 0 57-40 59-64v-28c-65-12-164-30-206-48-43-18-110-66-110-150C44 72 95-14 215-14c77 0 121 33 160 62V0h151c-12 18-15 26-15 82v304c0 135-155 150-219 150-61 0-123-8-171-46-47-37-52-80-55-116m294-124c-1-54-3-102-54-134-16-10-34-17-53-17-36 0-58 28-58 53 0 40 40 55 66 65m86 463c-26 4-49 19-73 29s-43 15-62 15c-66 0-92-55-100-142h72c2 15 6 46 39 46 20 0 41-10 64-21 24-11 54-25 86-25 76 0 86 80 93 138h-69c-2-12-7-41-40-41z"/><glyph unicode="b" horiz-adv-x="625" d="M69 707V0h148l-6 55c19-21 61-69 153-69 104 0 168 66 195 125 23 46 32 108 32 161 0 208-138 266-222 266-89 0-128-40-150-63v232m109-282c87 5 113-75 113-158 0-23-3-91-31-128-13-16-39-39-80-39-35 0-71 17-91 49-18 31-24 79-24 117 0 31 1 153 113 159z"/><glyph unicode="\" horiz-adv-x="479" d="M462 0L158 706H16L320 0z"/><glyph unicode="|" horiz-adv-x="229" d="M178 750H51V-250h127z"/><glyph unicode="{" horiz-adv-x="354" d="M35 273c37-11 64-42 74-79 4-19 4-30 5-93V52c0-62 0-110 33-147 42-49 109-50 205-50v54c-49 14-83 23-100 76-8 24-8 48-8 92v25c-1 70-1 96-14 126-22 52-70 65-92 71 25 7 72 18 93 76 11 29 11 44 12 123v23c1 75 1 114 44 144 19 14 42 19 65 24v54c-106 0-161-1-203-47-35-38-36-79-36-164v-45c0-67 0-144-78-161z"/><glyph unicode="}" horiz-adv-x="354" d="M335 325c-37 11-64 42-74 79-4 19-4 30-5 93v49c0 62 0 110-33 147-42 49-109 50-205 50v-54c49-14 83-23 100-76 8-24 8-48 8-92v-25c1-70 1-96 14-126 22-52 70-65 92-71-25-7-72-18-93-76-11-29-11-44-12-123V77c-1-75-1-114-44-144-19-14-42-19-65-24v-54c106 0 161 1 203 47 35 38 36 79 36 164v45c0 67 0 144 78 161z"/><glyph unicode="[" horiz-adv-x="354" d="M68-104h265v82H198v648h136v80H68z"/><glyph unicode="]" horiz-adv-x="354" d="M22 625h135V-23H21v-81h266v810H22z"/><glyph unicode="˘" horiz-adv-x="271" d="M190 720c-1-49-32-61-54-61-52 0-53 49-53 61H-18c3-28 6-62 29-92 43-57 108-57 123-57 21 0 85 0 127 59 20 29 25 61 29 90z"/><glyph unicode="¦" horiz-adv-x="229" d="M51-175h127v350H51m127 150v350H51V325z"/><glyph unicode="•" horiz-adv-x="333" d="M12 352c0-86 69-155 155-155s155 69 155 155-69 155-155 155S12 438 12 352z"/><glyph unicode="c" horiz-adv-x="500" d="M408 183c-5-15-10-27-23-42-32-36-70-36-78-36-82 0-116 87-116 156 0 63 28 158 111 158 24 0 43-8 58-18 25-18 35-36 44-55l114 65c-66 109-165 125-223 125-174 0-262-128-262-280C33 43 192-17 292-17c59 0 110 19 150 47 42 30 63 63 82 93z"/><glyph unicode="ˇ" horiz-adv-x="271" d="M137 657l-48 63H-30L73 589h126l102 131H182z"/><glyph unicode="ç" horiz-adv-x="500" d="M408 184c-6-16-10-27-24-42-29-33-62-36-77-36-82 0-116 87-116 156 0 63 28 158 111 158 25 0 44-9 57-18 25-17 34-35 44-55l114 65c-60 99-149 125-222 125-175 0-262-129-262-280C33 141 84 24 235-10l-32-58 12-18c9 1 18 3 28 3 32 0 55-17 55-40 0-18-15-31-36-31-26 0-42 19-53 32l-28-23c26-30 60-52 99-52 52 0 96 37 96 82 0 20-11 65-76 65-13 0-26-2-39-3l18 37c151-6 216 96 244 139z"/><glyph unicode="¸" horiz-adv-x="271" d="M60-68l12-18c9 1 18 3 27 3 33 0 56-17 56-40 0-18-16-31-35-31-27 0-43 18-54 32l-28-23c25-30 60-52 99-52 52 0 96 37 96 82 0 17-8 65-76 65-13 0-27-2-39-3l21 44H92z"/><glyph unicode="¢" horiz-adv-x="542" d="M267 533C137 525 32 425 32 257 32 63 162-4 267-15v-117h77v119C461 9 503 79 530 123l-114 59c-22-44-37-64-72-73v302c26-8 40-17 68-66l114 66c-28 39-75 104-182 121v113h-77m0-532c-20 11-76 41-76 148 0 52 19 125 76 150z"/><glyph unicode="ˆ" horiz-adv-x="271" d="M-30 588H88l46 63 49-62h118L198 720H71z"/><glyph unicode=":" horiz-adv-x="292" d="M86 354h160v168H86M86 0h160v170H86z"/><glyph unicode="," horiz-adv-x="250" d="M45 0h61c-4-53-14-84-59-102v-71c41 12 104 30 138 96 19 38 20 79 20 117v128H45z"/><glyph unicode="©" horiz-adv-x="833" d="M773 351c1 195-150 358-356 358-192 0-356-152-356-356C61 142 231-3 416-3c201 0 356 157 357 354m-32 0C740 173 600 29 417 29 239 29 93 171 93 353c0 178 142 324 326 324 185 0 323-148 322-326m-207-81c-16-15-48-45-108-45-78 0-127 52-127 129 0 64 36 130 125 130 47 0 79-19 110-49l87 84c-30 31-87 85-196 85-158 0-250-115-250-251 0-132 86-247 250-247 67 0 132 17 196 84z"/><glyph unicode="¤" horiz-adv-x="667" d="M661 570l-96 95-80-80c-26 15-71 43-151 43s-128-29-152-43l-80 80-94-95 79-80c-16-27-42-70-42-151s27-125 43-151L6 107l95-95 81 81c24-14 72-43 152-43 77 0 125 28 150 42l80-82 96 95-81 82c16 27 43 72 43 152 0 79-28 126-43 151m-82-151c-1-97-73-165-162-165-80 0-165 59-165 165s84 165 164 165c81 0 164-62 163-165z"/><glyph unicode="d" horiz-adv-x="604" d="M387 706V483c-28 21-69 53-138 53-105 0-217-81-217-278 0-34 0-139 76-212 41-40 95-60 147-60 77 0 117 39 141 63V0h140v706M336 115c-15-10-33-16-50-16-78 0-98 89-98 162 0 23 0 160 109 160 31 0 53-22 60-31 33-40 33-105 33-129 0-29 0-109-54-146z"/><glyph unicode="†" horiz-adv-x="583" d="M223 475H39V348h184v-467h135v467h184v127H358v234H223z"/><glyph unicode="‡" horiz-adv-x="583" d="M226 706V537H67V416h158V183H66V61h159v-182h130V60h160v123H355v232h161v122H355v169z"/><glyph unicode="°" horiz-adv-x="354" d="M5 574c0-95 77-172 172-172s172 77 172 172-77 172-172 172S5 669 5 574m116 0c0 31 25 56 56 56s56-25 56-56-25-56-56-56-56 25-56 56z"/><glyph unicode="¨" horiz-adv-x="271" d="M183 721V597h157v124m-408 0V597H89v124z"/><glyph unicode="÷" horiz-adv-x="667" d="M253 469c0-44 36-80 80-80s80 36 80 80-36 80-80 80-80-36-80-80m414-115H1V227h666M253 112c0-44 36-80 80-80s80 36 80 80-36 80-80 80-80-36-80-80z"/><glyph unicode="$" horiz-adv-x="667" d="M295 690c-43-3-98-8-151-43-58-39-89-97-89-173 0-19 1-79 55-126 44-39 112-54 186-68V126c-38 3-85 8-178 60L27 82c98-66 178-83 269-92v-120h80v120c51 6 95 11 147 42 45 28 74 62 91 123 6 21 9 41 9 62 0 48-18 93-47 123-45 47-117 64-200 83v133c52-11 68-15 135-49l88 102c-79 49-136 72-223 81v115h-81m1-368c-41 8-81 16-81 55 0 22 16 45 42 56 12 5 26 7 39 9m80-292c40-6 87-16 87-61 0-61-63-72-87-76z"/><glyph unicode="˙" horiz-adv-x="271" d="M57 722V590h157v132z"/><glyph unicode="ı" horiz-adv-x="292" d="M69 0h152v522H69z"/><glyph unicode="e" horiz-adv-x="583" d="M440 192c-19-37-48-92-132-92-83 0-120 65-119 130h373c-2 59-6 161-74 234-67 72-157 75-188 75C94 539 32 377 32 251 32 80 141-19 296-19c84 0 152 32 197 74 27 25 45 51 63 78M190 326c5 22 10 46 31 69 15 16 41 34 78 34 27 0 56-10 75-29 22-23 26-52 29-74z"/><glyph unicode="é" horiz-adv-x="583" d="M440 192c-19-37-48-92-132-92-83 0-120 65-119 130h373c-2 59-6 161-74 234-67 72-157 75-188 75C94 539 32 377 32 251 32 80 141-19 296-19c84 0 152 32 197 74 27 25 45 51 63 78M190 326c5 22 10 46 31 69 15 16 41 34 78 34 27 0 56-10 75-29 22-23 26-52 29-74M228 586h102l153 133H301z"/><glyph unicode="ê" horiz-adv-x="583" d="M440 192c-19-37-48-92-132-92-83 0-120 65-119 130h373c-2 59-6 161-74 234-67 72-157 75-188 75C94 539 32 377 32 251 32 80 141-19 296-19c84 0 152 32 197 74 27 25 45 51 63 78M190 326c5 22 10 46 31 69 15 16 41 34 78 34 27 0 56-10 75-29 22-23 26-52 29-74M129 588h118l46 63 49-62h118L357 720H230z"/><glyph unicode="ë" horiz-adv-x="583" d="M440 192c-19-37-48-92-132-92-83 0-120 65-119 130h373c-2 59-6 161-74 234-67 72-157 75-188 75C94 539 32 377 32 251 32 80 141-19 296-19c84 0 152 32 197 74 27 25 45 51 63 78M190 326c5 22 10 46 31 69 15 16 41 34 78 34 27 0 56-10 75-29 22-23 26-52 29-74m-64 395V597h157v124m-408 0V597h157v124z"/><glyph unicode="è" horiz-adv-x="583" d="M440 192c-19-37-48-92-132-92-83 0-120 65-119 130h373c-2 59-6 161-74 234-67 72-157 75-188 75C94 539 32 377 32 251 32 80 141-19 296-19c84 0 152 32 197 74 27 25 45 51 63 78M190 326c5 22 10 46 31 69 15 16 41 34 78 34 27 0 56-10 75-29 22-23 26-52 29-74M99 720l158-133h101l-74 133z"/><glyph unicode="8" horiz-adv-x="562" d="M395 357c33 16 96 46 96 147 0 122-92 186-210 186-157 0-214-98-214-181 0-97 66-137 93-153-33-13-82-32-108-94-8-18-13-41-13-68 0-60 27-118 67-151 37-31 101-54 173-54 104 0 240 49 240 204 0 115-81 146-124 164M277 572c61 4 67-63 67-88 0-56-30-77-63-77-57 0-65 57-65 86 0 40 18 76 61 79m10-269c21-2 70-17 70-96 0-44-10-60-15-67-13-19-38-31-64-31-38 0-77 27-77 98 0 69 43 100 86 96z"/><glyph unicode="…" horiz-adv-x="1000" d="M755 167V0h158v167m-492 0V0h158v167m-492 0V0h158v167z"/><glyph unicode="—" horiz-adv-x="604" d="M52 221h498v143H52z"/><glyph unicode="–" horiz-adv-x="562" d="M52 221h457v143H52z"/><glyph unicode="=" horiz-adv-x="667" d="M667 251H0V124h667m0 335H0V333h667z"/><glyph unicode="ð" horiz-adv-x="625" d="M535 651l-22 49-92-25c-13 14-21 23-50 52l-120-47c21-20 23-22 41-40l-136-37 18-51 157 43c37-48 50-74 66-105-17 16-48 48-114 48-119 0-252-89-252-278 0-146 91-276 281-276 208 0 281 146 281 283 0 168-74 285-134 363M303 416c22 2 59 1 90-29 35-33 44-85 44-130 0-84-41-151-126-151-81 0-125 71-125 157 0 38 9 75 26 102 22 35 51 48 91 51z"/><glyph unicode="!" horiz-adv-x="292" d="M90 495l45-252h67l48 259v204H90M90 0h160v170H90z"/><glyph unicode="¡" horiz-adv-x="292" d="M41 706V538h159v168M41 205V0h159v212l-45 253H88z"/><glyph unicode="f" horiz-adv-x="354" d="M93 510H10v-94h82V0h153v416h102v94H244c-1 70 2 82 60 82h37v115c-30 4-61 9-92 9-72 0-115-27-134-53-20-28-22-63-22-89z"/><glyph unicode="ﬁ" horiz-adv-x="646" d="M93 510H10v-94h82V0h153v416h102v94H244c-1 70 2 82 60 82h38v115c-31 4-62 9-93 9-73 0-115-27-134-53-20-28-21-62-22-89m331 13h152v120H424m0-707h152v522H424z"/><glyph unicode="5" horiz-adv-x="562" d="M55 321l139-23c6 17 12 34 37 46 11 5 22 7 34 7 46 0 86-34 86-117 0-37-5-126-84-126-39 0-64 22-74 55-7 22-7 40-6 56l-159-6c3-43 7-109 63-164 24-24 77-62 169-62 181 0 255 130 255 248 0 123-73 224-204 224-61 0-92-24-107-35l16 124h256l10 128H96z"/><glyph unicode="ﬂ" horiz-adv-x="646" d="M93 510H10v-94h82V0h153v416h102v94H244c-1 70 2 82 60 82h38v115c-31 4-62 9-93 9-73 0-115-27-134-53-20-28-21-62-22-89m330 132V0h154v706z"/><glyph unicode="ƒ" horiz-adv-x="333" d="M92 488H20l-10-94h71L47 47C35-72 35-76-68-73l-10-102c35-8 66-15 103-15 52 0 106 16 136 59 21 32 24 55 38 178l37 347h92l10 94h-91c5 61 8 88 62 88h49l11 102c-36 8-70 15-106 15-76 0-113-30-134-58-18-26-23-50-27-75z"/><glyph unicode="4" horiz-adv-x="562" d="M293 677L13 278l-1-122h274V0h158v156h90v111h-90v410M287 366v-99H126l109 160c11 18 23 35 34 54 8 15 16 31 24 46z"/><glyph unicode="⁄" horiz-adv-x="125" d="M-166-4l64-34 391 750-64 34z"/><glyph unicode="g" horiz-adv-x="604" d="M385 13c0-43 0-98-93-98-24 0-39 5-49 10-41 19-43 52-45 75H39c0-28-1-81 40-122 28-29 96-65 200-65 47 0 125 8 178 40 76 44 78 111 80 168v502H393v-49c-23 22-60 57-140 57C80 531 31 380 31 275c0-90 27-171 97-216 34-23 76-34 119-34 71 0 108 24 138 44M281 416c44 2 72-19 84-38 17-25 19-77 19-102 0-74-18-135-96-135-95 0-98 91-98 135 0 74 18 137 91 140z"/><glyph unicode="ß" horiz-adv-x="604" d="M67 0h152v472c0 55 1 76 9 97 15 36 45 49 77 49 6 0 26 0 42-9 27-14 38-43 38-74 0-71-41-76-87-79h-25v-92h27c37 0 77 0 105-53 14-27 17-58 17-89 0-62-22-118-87-118-22 0-35 7-51 15V6c43-16 88-17 98-17 157 0 190 150 190 239 0 93-29 169-114 184-7 2-14 2-22 3 14 4 28 8 38 14 20 12 53 44 53 108 0 67-37 184-226 184-65 0-178-15-218-136-12-37-14-77-16-116z"/><glyph unicode="`" horiz-adv-x="271" d="M6 720l158-133h101l-74 133z"/><glyph unicode="&gt;" horiz-adv-x="667" d="M667 289v124L0 709V570l489-219L0 136V-3z"/><glyph unicode="«" horiz-adv-x="417" d="M378 237l-68 57 68 57v138L220 355V230l158-130M192 237l-65 57 65 57v138L32 355V231l160-131z"/><glyph unicode="»" horiz-adv-x="417" d="M36 349l68-57-68-58V96l158 135v125L36 485m187-136l64-57-64-58V96l159 135v123L223 485z"/><glyph unicode="‹" horiz-adv-x="229" d="M191 237l-68 57 67 57v138L32 355V230l159-130z"/><glyph unicode="›" horiz-adv-x="229" d="M36 349l64-57-64-58V96l159 135v123L36 485z"/><glyph unicode="h" horiz-adv-x="604" d="M68 707V0h154v260c0 45 0 88 20 115 13 17 36 30 63 30 16 0 57-5 72-52 6-18 7-38 7-80V0h153v343c0 68-8 117-54 156-31 26-73 37-111 37-83 0-128-47-150-69v240z"/><glyph unicode="˝" horiz-adv-x="271" d="M-99 586H3l153 133H-26m142-133h101l154 133H189z"/><glyph unicode="-" horiz-adv-x="354" d="M52 223h248v143H52z"/><glyph unicode="i" horiz-adv-x="292" d="M70 588h152v119H70M70 0h152v523H70z"/><glyph unicode="í" horiz-adv-x="292" d="M69 0h152v522H69m14 64h102l153 133H156z"/><glyph unicode="î" horiz-adv-x="292" d="M69 0h152v522H69m-85 66h118l46 63 49-62h118L212 720H85z"/><glyph unicode="ï" horiz-adv-x="292" d="M69 0h152v522H69m125 199V597h157v124m-408 0V597h157v124z"/><glyph unicode="ì" horiz-adv-x="292" d="M69 0h152v522H69M-46 720l158-133h101l-74 133z"/><glyph unicode="j" horiz-adv-x="292" d="M69 706V588h152v118M69 19c0-57 0-77-69-74v-122l71-1c149 0 150 95 150 184v516H69z"/><glyph unicode="k" horiz-adv-x="583" d="M67 0h150v163l66 62L417 0h178L392 336l180 186H387L218 343v363H67z"/><glyph unicode="l" horiz-adv-x="292" d="M68 706V0h154v706z"/><glyph unicode="&lt;" horiz-adv-x="667" d="M667 136L178 351l489 219v139L0 413V289L667-3z"/><glyph unicode="¬" horiz-adv-x="667" d="M540 0h127v354H1V227h539z"/><glyph unicode="ł" horiz-adv-x="292" d="M222 706H68V349L0 299v-79l68 50V0h154v381l69 50v79l-69-50z"/><glyph unicode="m" horiz-adv-x="896" d="M219 521H67V0h152v297c0 36 1 78 35 101 14 9 30 12 42 12 25 0 48-11 60-27 14-20 15-51 15-74V0h152v284c0 57 0 87 29 110 15 12 35 16 50 16 12 0 53-3 67-47 6-20 6-59 6-89V0h152v340c0 56-1 92-14 120-16 32-60 75-146 75-83 0-125-36-155-61-28 29-59 61-145 61-90 0-130-47-148-68z"/><glyph unicode="¯" horiz-adv-x="271" d="M-68 698V597h408v101z"/><glyph unicode="−" horiz-adv-x="667" d="M667 354H0V227h667z"/><glyph unicode="µ" horiz-adv-x="604" d="M380 0h154v521H380V197c0-15-5-87-81-87-34 0-55 16-65 30-13 18-15 42-15 64v318H64v-734h155V11c13-10 32-25 66-25 60 0 82 41 95 64z"/><glyph unicode="×" horiz-adv-x="667" d="M605 110L424 291l181 183-89 88-183-180-182 180-90-88 182-183L61 110l90-91 182 182L516 19z"/><glyph unicode="n" horiz-adv-x="604" d="M225 521H70V0h154v282c0 65 0 130 81 130 30 0 57-12 69-40 6-14 7-31 7-78V0h153v357c0 81-14 128-69 157-27 15-62 21-93 21-37 0-71-9-95-19-27-13-37-25-52-41z"/><glyph unicode="9" horiz-adv-x="562" d="M46 172c6-38 18-109 91-155 35-22 76-30 118-30 219 0 263 182 263 368 0 165-46 252-116 298-37 25-82 36-127 36-142 0-243-87-243-238 0-153 108-208 187-208 35 0 110 12 147 79-2-52-7-137-35-179-15-23-41-35-63-35-29 0-53 19-60 48-2 11-2 22-2 33m65 169c-18-1-39 4-53 15-32 24-33 70-33 89s0 109 83 109c69 0 78-72 78-109 0-66-32-101-75-104z"/><glyph unicode="ñ" horiz-adv-x="604" d="M225 521H70V0h154v282c0 65 0 130 81 130 30 0 57-12 69-40 6-14 7-31 7-78V0h153v357c0 81-14 128-69 157-27 15-62 21-93 21-37 0-71-9-95-19-27-13-37-25-52-41m133 205c-26 4-49 19-73 29s-43 15-62 15c-66 0-92-55-100-142h72c2 15 6 46 39 46 20 0 41-10 64-21 24-11 54-25 86-25 76 0 86 80 93 138h-69c-2-12-7-41-40-41z"/><glyph unicode="#" horiz-adv-x="667" d="M485 186h116v123h-98l13 96h108v124h-91l24 177H432l-24-177H308l26 177H209l-25-177H67V405h100l-13-96H42V186h94L112 0h123l26 186h99L334 0h125M278 309l14 96h99l-14-96z"/><glyph unicode="o" horiz-adv-x="625" d="M333 538C133 549 32 422 32 262 32 69 166-15 313-15c204 0 280 145 280 277 0 95-47 264-260 276m-29-122c22 2 58 1 90-29 29-28 43-73 43-131 0-82-41-149-124-149-86 0-126 73-126 156 0 36 7 72 26 102 21 33 47 48 91 51z"/><glyph unicode="ó" horiz-adv-x="625" d="M333 538C133 549 32 422 32 262 32 69 166-15 313-15c204 0 280 145 280 277 0 95-47 264-260 276m-29-122c22 2 58 1 90-29 29-28 43-73 43-131 0-82-41-149-124-149-86 0-126 73-126 156 0 36 7 72 26 102 21 33 47 48 91 51m-56 170h102l153 133H321z"/><glyph unicode="ô" horiz-adv-x="625" d="M333 538C133 549 32 422 32 262 32 69 166-15 313-15c204 0 280 145 280 277 0 95-47 264-260 276m-29-122c22 2 58 1 90-29 29-28 43-73 43-131 0-82-41-149-124-149-86 0-126 73-126 156 0 36 7 72 26 102 21 33 47 48 91 51M149 588h118l46 63 49-62h118L377 720H250z"/><glyph unicode="ö" horiz-adv-x="625" d="M333 538C133 549 32 422 32 262 32 69 166-15 313-15c204 0 280 145 280 277 0 95-47 264-260 276m-29-122c22 2 58 1 90-29 29-28 43-73 43-131 0-82-41-149-124-149-86 0-126 73-126 156 0 36 7 72 26 102 21 33 47 48 91 51m58 303V595h157v124m-408 0V595h157v124z"/><glyph unicode="œ" horiz-adv-x="938" d="M798 192c-11-26-35-86-125-86-28 0-72 5-103 52-17 27-20 50-23 71h373c-4 65-12 191-111 262-31 23-80 45-148 45-83 0-143-28-189-70-30 27-80 70-180 70-146 0-260-97-260-275 0-65 15-115 34-150C115 22 210-13 286-13c45 0 88 11 124 29 32 15 45 29 64 47 21-19 35-32 68-48 55-27 99-30 125-30 30 0 118 5 187 64 31 27 46 54 63 82M549 324c5 39 29 97 104 97 64 0 100-38 108-97m-470 94c48 2 73-21 88-48 20-36 22-87 22-108 0-92-42-153-104-153-44 0-80 23-98 64-15 32-15 84-15 90 0 45 13 85 28 109 17 28 40 45 79 46z"/><glyph unicode="˛" horiz-adv-x="271" d="M123 0C90-20 40-52 40-101c0-37 30-74 96-74 52 0 75 22 94 40l-25 24c-16-10-25-16-40-16-17 0-45 9-45 41 0 35 34 70 49 86z"/><glyph unicode="ò" horiz-adv-x="625" d="M333 538C133 549 32 422 32 262 32 69 166-15 313-15c204 0 280 145 280 277 0 95-47 264-260 276m-29-122c22 2 58 1 90-29 29-28 43-73 43-131 0-82-41-149-124-149-86 0-126 73-126 156 0 36 7 72 26 102 21 33 47 48 91 51M119 720l158-133h101l-74 133z"/><glyph unicode="1" horiz-adv-x="562" d="M88 473c97 2 106 6 143 22V0h161v678H270c-13-27-26-53-70-76-39-20-74-22-112-25z"/><glyph unicode="½" horiz-adv-x="875" d="M186 0l79-41 376 720-80 42M48 540c59 0 80 4 107 13V235h110v442h-85c-23-42-46-62-132-64m585-337c-2 11-4 20-4 32 0 27 13 60 47 60 29 0 45-25 45-56 0-73-54-122-193-230V0h307v88H671c16 11 31 23 46 35 73 57 116 112 116 184 0 46-21 107-86 132-26 11-53 13-74 13-66 0-110-27-133-73-17-34-17-68-17-97z"/><glyph unicode="¼" horiz-adv-x="875" d="M210 0l79-41 376 720-80 42M48 540c59 0 80 4 107 13V235h110v442h-85c-23-42-46-62-132-64m463-431V98h182V0h106v98h59v78h-58v266H696m-2-266H594c21 29 42 58 61 87 14 21 26 42 39 63z"/><glyph unicode="¹" horiz-adv-x="375" d="M48 540c59 0 80 4 107 13V236h110v441h-85c-23-42-46-62-132-64z"/><glyph unicode="ª" horiz-adv-x="333" d="M133 626c2 11 6 31 37 31 37 0 36-28 36-40l-19-5c-17-4-35-6-52-10-19-3-98-18-98-92 0-46 35-83 95-83 38 0 59 15 78 29 0-12 0-14 1-24h85c-8 11-9 14-10 28v173c0 32-13 46-23 55-26 22-68 27-97 27-42 0-79-8-100-35-15-19-17-38-18-54m157-65c0-18 0-39-17-56-10-10-24-15-39-15-27 0-28 21-28 24 0 24 20 29 84 47z"/><glyph unicode="º" horiz-adv-x="354" d="M171 716c-96-2-141-68-141-145 0-113 78-148 145-148 37 0 88 10 120 54 22 31 27 72 27 94 0 47-25 147-151 145m2-68c48 2 64-40 64-79 0-35-12-61-31-72-11-6-23-6-29-6-46 0-63 40-63 78 0 19 4 40 12 53 14 22 34 25 47 26z"/><glyph unicode="ø" horiz-adv-x="625" d="M496 473c-24 19-83 65-191 65-177 0-272-123-272-272 0-93 36-143 53-167L11 30l40-46 76 70c32-27 81-68 185-68 158 0 280 104 280 271 0 90-38 145-55 171l74 67-40 46M191 195c-4 17-9 34-9 68 0 133 81 158 128 158 48 0 71-20 89-36m32-54c5-22 9-36 9-65 0-87-36-162-127-162-52 0-72 20-89 37z"/><glyph unicode="õ" horiz-adv-x="625" d="M333 538C133 549 32 422 32 262 32 69 166-15 313-15c204 0 280 145 280 277 0 95-47 264-260 276m-29-122c22 2 58 1 90-29 29-28 43-73 43-131 0-82-41-149-124-149-86 0-126 73-126 156 0 36 7 72 26 102 21 33 47 48 91 51m63 264c-26 4-49 19-73 29s-43 15-62 15c-66 0-92-55-100-142h72c2 15 6 46 39 46 20 0 41-10 64-21 24-11 54-25 86-25 76 0 86 80 93 138h-69c-2-12-7-41-40-41z"/><glyph unicode="p" horiz-adv-x="604" d="M201 520H64v-701h155V34c41-25 71-44 129-44 179 0 226 166 226 273 0 174-99 271-227 271-58 0-105-21-131-46-5-5-10-11-15-17m143-49c63-16 82-89 82-158 0-82-33-163-108-163-25 0-51 11-69 30-20 22-37 63-37 129 0 49 10 94 32 123 22 30 51 42 79 42 7 0 14-1 21-3z"/><glyph unicode="¶" horiz-adv-x="667" d="M355 706c-41-1-104-2-160-54-61-55-66-126-66-161 0-62 23-123 71-161 31-24 60-31 83-38v-459h84v795h118v-795h84v795h36v78z"/><glyph unicode="(" horiz-adv-x="354" d="M338-86c-27 26-53 50-81 95-51 81-78 187-78 293 0 110 27 197 67 270 34 65 65 93 94 121l-53 50c-35-26-96-72-153-154-96-136-96-259-96-295C38 56 191-71 287-145z"/><glyph unicode=")" horiz-adv-x="354" d="M16 691c27-26 53-50 82-95 50-81 77-187 77-292 0-111-27-198-67-271C74-31 43-60 15-88l53-50c34 26 95 72 152 154 96 136 96 259 96 295 0 238-154 366-249 439z"/><glyph unicode="%" horiz-adv-x="875" d="M209 0l80-41 376 719-80 42m107-266c-119 2-164-112-164-233 0-97 33-227 159-227 71 0 103 39 113 54 31 42 47 107 47 173 0 46-7 124-44 175-23 32-59 57-111 58m-9-87c54 6 63-83 63-145 0-39-2-143-56-143-46 0-59 59-59 137 0 15 1 85 17 120 3 8 12 29 35 31M161 686c-50-9-78-36-98-68-30-49-37-109-37-160 0-103 33-230 156-230 74 0 105 40 116 54 31 42 47 107 47 173 0 158-67 233-157 233-9 0-18-1-27-2m20-85c58 6 62-102 62-145 0-44-3-143-56-143-46 0-59 59-59 137 0 14 1 85 17 120 3 8 12 29 36 31z"/><glyph unicode="." horiz-adv-x="250" d="M45 0h158v167H45z"/><glyph unicode="·" horiz-adv-x="250" d="M45 209h158v167H45z"/><glyph unicode="‰" horiz-adv-x="1250" d="M211 0l79-41 376 719-80 42m106-266c-119 2-164-112-164-233 0-97 33-227 159-227 71 0 103 39 113 54 31 42 47 107 47 173 0 46-7 124-44 175-23 32-59 57-111 58m-9-87c54 6 63-83 63-145 0-39-2-143-56-143-46 0-59 59-59 137 0 15 1 85 17 120 3 8 12 29 35 31m384 87c-119 2-164-112-164-233 0-97 33-227 159-227 71 0 103 39 113 54 31 42 47 107 47 173 0 46-7 124-44 175-23 32-59 57-111 58m-9-87c54 6 63-83 63-145 0-39-2-143-56-143-46 0-59 59-59 137 0 15 1 85 17 120 3 8 12 29 35 31M161 686c-50-9-78-36-98-68-30-49-37-109-37-160 0-104 33-230 156-230 74 0 105 40 116 54 31 42 47 107 47 174 0 157-67 232-157 232-9 0-18-1-27-2m20-85c58 6 62-102 62-145 0-44-3-143-56-143-46 0-59 59-59 137 0 15 1 85 17 120 3 8 12 29 36 31z"/><glyph unicode="+" horiz-adv-x="667" d="M398 228h227v127H398v228H271V355H42V228h229V0h127z"/><glyph unicode="±" horiz-adv-x="667" d="M398 371h227v127H398v208H271V498H42V371h229V162h127m227-35H42V0h583z"/><glyph unicode="q" horiz-adv-x="604" d="M382-180h154v701H396v-44c-31 27-68 59-139 59-124 0-226-98-226-281C31 70 142-11 247-11c72 0 116 34 135 48m-94 66c-59 0-105 68-105 160 0 141 77 163 107 163 59 0 104-55 104-159 0-114-52-164-106-164z"/><glyph unicode="?" horiz-adv-x="604" d="M204 488c1 18 2 42 22 71 25 34 58 47 98 47 32 0 53-10 66-22 23-20 27-56 27-68 0-50-49-85-66-97-29-20-60-38-85-64-38-38-40-67-42-112h127c5 24 8 33 36 55 38 30 77 54 114 82 28 22 84 64 84 153 0 54-24 104-67 137-49 37-121 50-183 50-68 0-131-13-181-49-59-41-76-90-93-137M210 0h158v170H210z"/><glyph unicode="¿" horiz-adv-x="604" d="M400 221c-1-18-2-42-22-71-25-35-58-47-98-47-26 0-52 6-70 26-19 21-23 50-23 64 0 49 49 85 66 97 28 21 60 38 85 64 39 40 40 67 42 112H253c-5-24-8-33-36-55-38-30-77-54-114-82-28-22-84-64-84-153 0-54 24-104 67-137 50-38 124-50 183-50 74 0 134 15 181 49 59 41 76 90 93 137M394 706H236V539h158z"/><glyph unicode="&quot;" horiz-adv-x="396" d="M288 408h31l53 261c1 6 1 12 1 18 0 40-32 62-67 62-36 0-75-22-75-67 0-7 0-15 2-24M79 408h32l53 261c1 6 1 12 1 18 0 40-32 62-68 62-35 0-74-22-74-67 0-7 0-15 2-24z"/><glyph unicode="„" horiz-adv-x="479" d="M46 0h63c-1-65-18-89-63-104v-70c66 7 103 44 116 60 32 38 41 84 42 133v148H46M276 0h63c-1-65-18-89-63-104v-70c66 7 103 44 116 60 32 38 41 83 42 133v148H276z"/><glyph unicode="“" horiz-adv-x="479" d="M434 538h-63c1 65 18 90 63 104v71c-66-8-103-45-116-60-32-39-41-84-42-134V371h158M204 538h-63c1 65 18 90 63 104v71c-66-8-103-45-116-60-32-39-41-84-42-133V371h158z"/><glyph unicode="”" horiz-adv-x="479" d="M276 539h63c-1-65-18-89-63-103v-71c66 7 103 44 116 60 32 38 41 84 42 133v148H276M46 539h63c-1-65-18-89-63-103v-71c66 7 103 44 116 60 32 38 41 84 42 133v148H46z"/><glyph unicode="‘" horiz-adv-x="250" d="M46 372h159v168h-62c6 58 17 84 62 103v69c-24-4-83-14-127-76-28-39-30-70-32-108z"/><glyph unicode="’" horiz-adv-x="250" d="M45 542h64c-2-65-18-89-64-103v-71c67 8 104 45 117 60 31 39 40 84 42 134v144H45z"/><glyph unicode="‚" horiz-adv-x="250" d="M45 0h61c-4-53-13-84-60-102v-71c41 12 105 30 139 96 19 38 19 79 20 117v128H45z"/><glyph unicode="'" horiz-adv-x="208" d="M90 408h31l53 261c1 6 1 12 1 18 0 40-31 62-67 62s-75-22-75-67c0-7 0-15 2-24z"/><glyph unicode="r" horiz-adv-x="375" d="M216 523H66V0h154v294c0 66 22 77 96 90l51 8v136c-80-8-117-31-151-60z"/><glyph unicode="®" horiz-adv-x="833" d="M251 586V128h110v192h19c67-2 70-7 82-93 6-40 11-71 25-99h126c-23 42-29 81-39 143-10 57-23 68-51 86 29 13 80 37 80 105 0 42-23 95-81 113-31 10-69 11-108 11m-53-84h33c54 0 62 0 75-5 18-8 24-26 24-41 0-14-6-32-20-40-13-8-31-9-64-9h-48m412-55c1 194-150 357-356 357-192 0-356-151-356-356C61 142 231-3 416-3c201 0 356 157 357 355m-32 0C740 173 600 29 417 29 239 29 93 171 93 353c0 178 143 324 326 324 185 0 323-148 322-325z"/><glyph unicode="˚" horiz-adv-x="271" d="M37 655c0-54 44-98 98-98s98 44 98 98-44 98-98 98-98-44-98-98m58 0c0 22 18 40 40 40s40-18 40-40-18-40-40-40-40 18-40 40z"/><glyph unicode="s" horiz-adv-x="521" d="M-2 88C31 57 106-13 251-13c123 0 247 60 247 183 0 124-122 152-227 171-50 9-83 15-83 45 0 15 14 39 74 39 36 0 82-14 131-52l95 88c-36 25-110 78-233 78-146 0-220-89-220-175 0-39 16-75 39-98s55-36 87-45c23-7 47-12 70-16 30-5 66-8 89-20 9-5 20-12 20-30 0-39-56-51-93-51-58 0-110 31-152 72z"/><glyph unicode="š" horiz-adv-x="521" d="M-2 88C31 57 106-13 251-13c123 0 247 60 247 183 0 124-122 152-227 171-50 9-83 15-83 45 0 15 14 39 74 39 36 0 82-14 131-52l95 88c-36 25-110 78-233 78-146 0-220-89-220-175 0-39 16-75 39-98s55-36 87-45c23-7 47-12 70-16 30-5 66-8 89-20 9-5 20-12 20-30 0-39-56-51-93-51-58 0-110 31-152 72m167 481l-48 63H95l103-131h126l102 131H307z"/><glyph unicode="§" horiz-adv-x="604" d="M53-50c32-20 65-41 119-61 60-22 121-32 162-32 115 0 189 74 189 152 0 37-16 59-34 85 35 26 99 74 99 162 0 87-65 136-172 186-34 16-68 30-102 46-48 23-67 31-74 42-4 6-7 12-7 19 0 23 27 29 54 29 68 0 125-30 168-53l98 78c-72 40-159 87-273 87-65 0-144-17-181-91-7-15-15-36-15-62 0-41 17-62 38-88-32-21-67-43-88-92-8-19-13-40-13-61 0-89 75-135 97-149 34-21 69-36 105-52 28-13 55-26 81-38 72-34 72-47 72-55 0-3-2-32-56-32-59 0-124 32-170 59m54 362c45-23 77-39 131-65 74-33 113-55 113-97 0-33-22-54-41-72-36 20-59 33-106 55-104 47-107 49-122 64-20 21-20 41-20 46 0 37 27 56 45 69z"/><glyph unicode=";" horiz-adv-x="292" d="M86 354h160v170H86m0-353V0h61c-4-63-16-85-61-101v-70c40 10 79 19 115 61 39 45 42 91 45 122v159z"/><glyph unicode="7" horiz-adv-x="562" d="M34 547h323C165 329 113 94 92 0h186c8 69 15 120 47 220 41 127 91 219 188 336v122H34z"/><glyph unicode="6" horiz-adv-x="562" d="M515 507c-7 38-20 109-91 154-32 19-71 30-118 30C85 691 42 507 42 323 42 158 88 71 158 25c42-28 88-36 127-36 143 0 243 87 243 238 0 150-105 208-187 208-32 0-66-8-96-26-31-18-42-36-51-53 2 52 7 137 35 179 16 23 41 35 64 35 29 0 53-19 60-48 3-11 2-22 2-33m-66-169c18 1 39-4 53-15 32-24 33-70 33-89s0-109-83-109c-69 0-78 72-78 109 0 66 32 101 75 104z"/><glyph unicode="/" horiz-adv-x="479" d="M16 0h142l304 706H320z"/><glyph horiz-adv-x="271"/><glyph unicode="£" horiz-adv-x="688" d="M58 397v-98h145c20-28 25-37 41-72-22 3-40 6-62 6-107 0-166-60-166-127C16 23 96-15 174-15c110 0 158 58 177 81C406 28 456-6 517-6c54 0 84 27 101 50 34 47 39 113 43 182l-146 11c-3-68-7-113-50-113-26 0-39 17-66 36 3 17 4 29 4 43 0 47-14 75-26 96h90v98H311c-19 24-44 56-44 95 0 80 88 80 104 80 93 0 100-55 103-117l153 11c-1 30-4 112-46 161-16 19-66 68-202 68-83 0-129-12-158-23-87-35-122-103-122-162 0-23 6-67 36-113m114-264c-10-21-18-40-46-54-10-4-21-7-32-7-25 0-46 15-46 39 0 18 17 41 56 41 27 0 49-10 68-19z"/><glyph unicode="t" horiz-adv-x="354" d="M87 511H11v-94h76V165c0-50 1-87 22-118C142-1 200-4 253-4c28 0 48 3 81 8v120l-55-2c-41 0-41 27-40 59v235h102v94H240v163H87z"/><glyph unicode="þ" horiz-adv-x="604" d="M201 706H64v-887h155V34c41-25 71-44 129-44 179 0 226 166 226 273 0 174-99 271-227 271-57 0-105-21-130-46-5-5-11-11-16-17m143-49c65-17 82-92 82-158 0-82-33-163-108-163-26 0-51 11-69 30-21 23-37 66-37 129 0 46 10 93 32 123 21 29 51 42 79 42 7 0 14-1 21-3z"/><glyph unicode="3" horiz-adv-x="562" d="M202 471c0 29 0 98 69 98 33 0 73-22 73-77 0-7 0-63-58-77-16-4-33-3-50-2V298c39 2 122 6 122-86 0-63-36-100-89-100-46 0-83 37-83 100 0 10 1 19 1 29L31 228c0-40 0-109 48-166 45-53 114-74 183-74 75 0 157 19 210 84 30 36 47 84 47 130 0 61-30 120-90 144-13 5-26 8-39 11 22 9 44 18 61 33 30 24 51 68 51 118 0 51-21 102-61 135-27 23-75 47-160 47-27 0-104-1-162-48-49-40-68-94-75-157z"/><glyph unicode="¾" horiz-adv-x="875" d="M240 0l79-41 376 719-80 42M512 182V98h181V0h106v98h59v78h-58v265H696m-2-265H594c21 29 42 58 61 86 14 21 26 42 39 63M139 540c-1 17-2 65 42 65 25 0 46-18 46-48s-19-48-50-48c-7 0-14 1-20 1v-79c20 1 49 2 68-21 9-10 13-25 13-39 0-33-23-59-56-59-30 0-55 24-55 66 0 7 1 13 1 20l-106-9c-1-45-3-161 161-161 119 0 166 72 166 141 0 78-61 97-82 104 16 6 67 27 67 98 0 66-53 117-144 117-135 0-150-87-159-138z"/><glyph unicode="³" horiz-adv-x="375" d="M138 540c0 17-1 65 43 65 25 0 46-18 46-48s-19-48-50-48c-7 0-14 1-21 1v-79c21 1 50 2 68-21 9-10 13-25 13-39 0-33-23-59-56-59-29 0-54 24-54 66 0 7 1 13 1 20l-106-9c-1-45-3-161 160-161 119 0 166 72 166 141 0 78-61 97-82 104 17 6 68 27 68 98 0 66-53 117-144 117-135 0-150-87-159-138z"/><glyph unicode="˜" horiz-adv-x="271" d="M194 680c-26 4-49 19-73 29s-43 15-62 15c-66 0-92-55-100-142h72c2 15 6 46 39 46 20 0 41-10 64-21 24-11 54-25 86-25 76 0 86 80 93 138h-69c-2-12-7-41-40-41z"/><glyph unicode="™" horiz-adv-x="687" d="M674 706H567l-71-240-76 240H314V374h81l-4 177c-2 34-5 50-7 66l14-51 59-192h75l56 191c6 21 7 26 14 54-5-33-6-52-6-68l-4-177h82M186 639h101v67H0v-67h102V374h84z"/><glyph unicode="2" horiz-adv-x="562" d="M193 426c-2 21-4 36-4 53 0 40 7 56 15 67 11 14 31 27 59 27 69 0 69-66 69-93 0-107-58-164-138-234-70-60-106-88-157-128V0h465v128l-264-4c25 19 50 37 74 57 141 115 188 204 188 302 0 48-14 135-104 180-44 22-93 27-126 27-53 0-174-7-222-134-18-47-17-87-16-121z"/><glyph unicode="²" horiz-adv-x="375" d="M133 512c-2 11-4 20-4 32 0 27 13 60 47 60 29 0 45-25 45-56 0-73-54-122-193-230v-82h307v88H171c16 11 31 23 46 35 73 57 116 112 116 184 0 46-21 107-86 132-26 11-53 13-74 13-66 0-110-27-133-73-17-34-17-68-17-97z"/><glyph unicode="u" horiz-adv-x="604" d="M380 197c-1-28-2-54-35-74-23-13-44-13-53-13-31 0-52 14-61 26-12 16-12 39-12 62v324H64V194c0-85 5-116 32-154 36-50 99-55 133-55s68 8 99 24c28 14 37 24 52 41V0h154v522H380z"/><glyph unicode="ú" horiz-adv-x="604" d="M380 197c-1-28-2-54-35-74-23-13-44-13-53-13-31 0-52 14-61 26-12 16-12 39-12 62v324H64V194c0-85 5-116 32-154 36-50 99-55 133-55s68 8 99 24c28 14 37 24 52 41V0h154v522H380m-141 64h102l153 133H312z"/><glyph unicode="û" horiz-adv-x="604" d="M380 197c-1-28-2-54-35-74-23-13-44-13-53-13-31 0-52 14-61 26-12 16-12 39-12 62v324H64V194c0-85 5-116 32-154 36-50 99-55 133-55s68 8 99 24c28 14 37 24 52 41V0h154v522H380m-240 66h118l46 63 49-62h118L368 720H241z"/><glyph unicode="ü" horiz-adv-x="604" d="M380 197c-1-28-2-54-35-74-23-13-44-13-53-13-31 0-52 14-61 26-12 16-12 39-12 62v324H64V194c0-85 5-116 32-154 36-50 99-55 133-55s68 8 99 24c28 14 37 24 52 41V0h154v522H380m-32 199V597h157v124m-408 0V597h157v124z"/><glyph unicode="ù" horiz-adv-x="604" d="M380 197c-1-28-2-54-35-74-23-13-44-13-53-13-31 0-52 14-61 26-12 16-12 39-12 62v324H64V194c0-85 5-116 32-154 36-50 99-55 133-55s68 8 99 24c28 14 37 24 52 41V0h154v522H380M110 720l158-133h101l-74 133z"/><glyph unicode="_" horiz-adv-x="500" d="M510-75H-10v-50h520z"/><glyph unicode="v" horiz-adv-x="500" d="M169 0h161l169 522H341l-32-128c-31-123-34-136-55-252-17 100-28 148-92 380H0z"/><glyph unicode="w" horiz-adv-x="792" d="M0 522L143 0h169l78 348L467 0h167l156 522H631l-82-368-71 368H314l-79-365-73 365z"/><glyph unicode="x" horiz-adv-x="521" d="M336 522l-74-133-69 133H19l158-239L0 0h170l87 162L356 0h164L343 278l158 244z"/><glyph unicode="y" horiz-adv-x="500" d="M336 522l-86-374-86 374H0L156 18c3-11 7-24 7-37 0-37-39-37-64-38H45v-122h111c40 1 75 3 111 42 26 29 37 61 49 95l184 564z"/><glyph unicode="ý" horiz-adv-x="500" d="M336 522l-86-374-86 374H0L156 18c3-11 7-24 7-37 0-37-39-37-64-38H45v-122h111c40 1 75 3 111 42 26 29 37 61 49 95l184 564m-313 64h102l153 133H260z"/><glyph unicode="ÿ" horiz-adv-x="500" d="M336 522l-86-374-86 374H0L156 18c3-11 7-24 7-37 0-37-39-37-64-38H45v-122h111c40 1 75 3 111 42 26 29 37 61 49 95l184 564M298 721V597h157v124m-408 0V597h157v124z"/><glyph unicode="¥" horiz-adv-x="708" d="M205 692H2l169-236H87V348h162l18-26v-43H87V171h180V0h174v171h179v108H441v48l15 21h164v108h-85l173 236H507L356 456z"/><glyph unicode="z" horiz-adv-x="542" d="M64 404h252L34 116V0h477v120H233l278 284v118H64z"/><glyph unicode="ž" horiz-adv-x="542" d="M64 404h252L34 116V0h477v120H233l278 284v118H64m210 135l-48 63H107l103-131h126l102 131H319z"/><glyph unicode="0" horiz-adv-x="562" d="M272 689c-113-4-163-84-178-109-47-79-54-172-54-236 0-124 20-207 60-265 63-93 145-94 175-94 195 0 246 197 246 351 0 97-23 361-249 353m4-125c27 1 48-13 63-40 24-42 32-123 32-190 0-59-7-127-22-169-13-34-32-56-68-56-81 0-93 124-93 202 0 153 21 250 88 253z"/></font>
</svg>
